'Allo 'Allo!

Ritas Welt Staffel 3 FS German DVD Rip DivX

  • Download 5x Faster
  • Download torrent
  • Direct Download
  • Rate this torrent +  |  -
Ritas Welt Staffel 3 FS German DVD Rip DivX

Free and Direct Download with Usenet.nl 300GB+ free


Torrent info

Name:Ritas Welt Staffel 3 FS German DVD Rip DivX

Total Size: 3.26 GB

Magnet: Magnet Link

Seeds: 0

Leechers: 0

Stream: Watch Online @ Movie4u

Last Updated: 2015-11-06 12:23:27 (Update Now)

Torrent added: 2009-08-22 22:52:13





Torrent Files List


Ritas.Welt.Staffel.3.FS.German.DVD.Rip.DivX.nfo (Size: 3.26 GB) (Files: 14)

 Ritas.Welt.Staffel.3.FS.German.DVD.Rip.DivX.nfo

3.08 KB

 Ritas Welt S03E13 Schumanns letzter Kampf.avi

272.31 MB

 Ritas Welt S03E12 Kurvenwunder.avi

272.57 MB

 Ritas Welt S03E11 Der Ring.avi

270.14 MB

 Ritas Welt S03E10 Sandras Rueckkehr.avi

270.73 MB

 Ritas Welt S03E09 Gisis Katze.avi

272.12 MB

 Ritas Welt S03E08 Jugendamt.avi

272.05 MB

 Ritas Welt S03E07 Bowling.avi

268.88 MB

 Ritas Welt S03E06 Maenner.avi

267.07 MB

 Ritas Welt S03E05 Ich wars.avi

212.40 MB

 Ritas Welt S03E04 Opa Kruse.avi

210.66 MB

 Ritas Welt S03E03 Frikadellenkrieg.avi

204.51 MB

 Ritas Welt S03E02 Kevins Pruefung.avi

274.08 MB

 Ritas Welt S03E01 Auf die Knie Frau Kruse.avi

275.70 MB
 

tracker

leech seeds
 

Torrent description

::::Edelweis-Group Presents::::

Torrent Name: Ritas Welt Staffel 3 Complete

> Movie/Serie

Sprache: [X] Deutsch [ ] Englisch [ ] siehe Beschreibung

Video: [ ] HDTV [X] DVD [ ] TV/dTV [ ] TS [ ] Cam [ ] Sonstiges
Audio: [ ] AC3 [X] DVD [ ] TV/dTV [ ] LD [ ] Micro [ ] Sonstiges

Genre: TV-Serie/Comedy

Untertitel: keine

Extras: keine

Beschreibung:
Anpacken, zusammenhalten, Klartext reden - das ist Rita Kruse alias
Gaby Koester. Sie ist ein Multitalent des Alltags: Supermarktkassiererin
Hausfrau und Mutter. Ihr Leben wird staendig vom Chaos bedroht. Aber
Rita hat fuer jede Situation ein Patentrezept: Geradeaus und durch
egal was sich ihr in den Weg stellt

Technische Details:
General
Format : AVI
Format/Info : Audio Video Interleave
File size : 276 MiB
Duration : 23mn 23s
Overall bit rate : 1647 Kbps
Writing library : Boilsoft Joiner build 2411/release

Video
Format : MPEG-4 Visual
Format profile : [email protected]
Format settings, BVOP : No
Format settings, QPel : No
Format settings, GMC : No warppoints
Format settings, Matrix : Default
Codec ID : DX50
Codec ID/Hint : DivX 5
Duration : 23mn 23s
Bit rate : 1510 Kbps
Width : 720 pixels
Height : 576 pixels
Display aspect ratio : 4/3
Frame rate : 25.000 fps
Standard : PAL
Resolution : 8 bits
Colorimetry : 4:2:0
Scan type : Progressive
Bits/(Pixel*Frame) : 0.146
Stream size : 253 MiB (92)
Writing library : MasterSoft AV Encoder Core

Audio
Format : MPEG Audio
Format version : Version 1
Format profile : Layer 3
Codec ID : 55
Codec ID/Hint : MP3
Duration : 23mn 23s
Bit rate mode : Constant
Bit rate : 128 Kbps
Channel(s) : 2 channels
Sampling rate : 48.0 KHz
Resolution : 16 bits
Video delay : 8ms
Stream size : 21.4 MiB (8)
Alignment : Split accross interleaves
Interleave, duration : 40 ms (1.00 video frame)
Interleave, preload duration : 500 ms

Note:

Happy leeching und das Seeden nicht vergessen!!

Wuerdigt die Arbeit jedes Uppers mit einen Danke und/oder eines netten Kommentars

Bin fuer Lob und Kritik stets offen

NFO File make with ZNFO Maker V6.6
(C)2008 by Edelweis-Group and VX / S4Y Crew

related torrents

Torrent name

health leech seeds Size
 

comments (0)

Main Menu