'Allo 'Allo!

Ritas Welt Staffel 2 FS German DVD Rip DivX

  • Download 5x Faster
  • Download torrent
  • Direct Download
  • Rate this torrent +  |  -
Ritas Welt Staffel 2 FS German DVD Rip DivX

Free and Direct Download with Usenet.nl 300GB+ free


Torrent info

Name:Ritas Welt Staffel 2 FS German DVD Rip DivX

Total Size: 3.98 GB

Magnet: Magnet Link

Seeds: 0

Leechers: 0

Stream: Watch Online @ Movie4u

Last Updated: 2015-11-02 05:15:21 (Update Now)

Torrent added: 2009-08-22 22:52:12





Torrent Files List


S02E17 - Bonus-Weihnachtsspecial.avi (Size: 3.98 GB) (Files: 18)

 S02E17 - Bonus-Weihnachtsspecial.avi

242.86 MB

 S02E16 - Was nun.avi

237.86 MB

 S02E15 - Sandras Abendteuer.avi

237.48 MB

 S02E14 - Schoene Bescherung.avi

241.35 MB

 S02E13 - Der Saftladen.avi

242.50 MB

 S02E12 - Tag der offenen Tuer.avi

241.17 MB

 S02E11 - Puppentheater.avi

241.18 MB

 S02E10 - Die Kruse Krise.avi

237.65 MB

 S02E09 - Skandal im Supermarkt.avi

238.08 MB

 S02E08 - Bilanz des Schreckens.avi

238.44 MB

 S02E07 - Eine Frau sieht rot.avi

238.57 MB

 S02E06 - Schumann dreht durch.avi

239.75 MB

 S02E05 - Nichts geht mehr.avi

238.42 MB

 S02E04 - Katzenjammer.avi

238.78 MB

 S02E03 - Sex in Gang 4.avi

239.39 MB

 S02E02 - Sandras Bett.avi

242.74 MB

 S02E01 - Gisis Motorrad.avi

241.61 MB

 Ritas.Welt.Staffel.2.FS.German.DVD.Rip.DivX.nfo

3.08 KB
 

tracker

leech seeds
 

Torrent description

::::Edelweis-Group Presents::::

Torrent Name: Ritas Welt Staffel 2 Complete

> Movie/Serie

Sprache: [X] Deutsch [ ] Englisch [ ] siehe Beschreibung

Video: [ ] HDTV [X] DVD [ ] TV/dTV [ ] TS [ ] Cam [ ] Sonstiges
Audio: [ ] AC3 [X] DVD [ ] TV/dTV [ ] LD [ ] Micro [ ] Sonstiges

Genre: TV-Serie/Comedy

Untertitel: keine

Extras: keine

Beschreibung:
Anpacken, zusammenhalten, Klartext reden - das ist Rita Kruse alias
Gaby Koester. Sie ist ein Multitalent des Alltags: Supermarktkassiererin
Hausfrau und Mutter. Ihr Leben wird staendig vom Chaos bedroht. Aber
Rita hat fuer jede Situation ein Patentrezept: Geradeaus und durch
egal was sich ihr in den Weg stellt

Technische Details:
General
Format : DivX
Format/Info : Hack of AVI
File size : 242 MiB
Duration : 23mn 29s
Overall bit rate : 1438 Kbps

Video
Format : MPEG-4 Visual
Format settings, BVOP : Yes
Format settings, QPel : No
Format settings, GMC : No warppoints
Format settings, Matrix : Default
Muxing mode : Packet Bitstream
Codec ID : DX50
Codec ID/Hint : DivX 5
Duration : 23mn 29s
Bit rate : 1300 Kbps
Width : 720 pixels
Height : 576 pixels
Display aspect ratio : 5/4
Frame rate : 25.000 fps
Standard : PAL
Resolution : 8 bits
Colorimetry : 4:2:0
Scan type : Progressive
Bits/(Pixel*Frame) : 0.125
Stream size : 218 MiB (90)
Title : Video
Writing library : DivX 1670

Audio
Format : MPEG Audio
Format version : Version 1
Format profile : Layer 3
Codec ID : 55
Codec ID/Hint : MP3
Duration : 23mn 29s
Bit rate mode : Constant
Bit rate : 128 Kbps
Channel(s) : 2 channels
Sampling rate : 44.1 KHz
Resolution : 16 bits
Stream size : 21.5 MiB (9)
Alignment : Split accross interleaves
Interleave, duration : 40 ms (1.00 video frame)
Interleave, preload duration : 500 ms
Title : Audio
Writing library : LAME3.92

Note:

Happy leeching und das Seeden nicht vergessen!!

Wuerdigt die Arbeit jedes Uppers mit einen Danke und/oder eines netten Kommentars

Bin fuer Lob und Kritik stets offen

NFO File make with ZNFO Maker V6.6
(C)2008 by Edelweis-Group and VX / S4Y Crew

related torrents

Torrent name

health leech seeds Size
 

comments (0)

Main Menu