Animation

The Tale Of Despereaux (2008) R5 Xvid(AC3 5 1ch) Miorita

  • Download 5x Faster
  • Download torrent
  • Direct Download
  • Rate this torrent +  |  -
The Tale Of Despereaux (2008) R5 Xvid(AC3 5 1ch) Miorita

Free and Direct Download with Usenet 300GB+ free


Torrent info

Name:The Tale Of Despereaux (2008) R5 Xvid(AC3 5 1ch) Miorita

Total Size: 1.38 GB

Magnet: Magnet Link

Seeds: 0

Leechers: 1

Stream: Watch Online @ Movie4u

Last Updated: 2011-01-04 15:18:01 (Update Now)

Torrent added: 2009-08-22 22:41:34




Torrent Files List


The Tale Of Despereaux.(2008).R5.Xvid(AC3-5.1ch)-Miorita.avi (Size: 1.38 GB) (Files: 3)

 The Tale Of Despereaux.(2008).R5.Xvid(AC3-5.1ch)-Miorita.avi

1.38 GB

 The Tale Of Despereaux.(2008).R5.Xvid(AC3-5.1ch)-Miorita.avi.jpg

607.20 KB

 The Tale Of Despereaux.(2008).R5.Xvid(AC3-5.1ch)-Miorita.txt

1.41 KB
 

Announce URL: http://tracker.thepiratebay.org:80/announce

Torrent description

<pre class="nfo">The Tale Of Despereaux.(2008).R5.Xvid(AC3-5.1ch)-Miorita.avi
Format : AVI
Format/Info : Audio Video Interleave
Format profile : OpenDML
File size : 1.38 GiB
Duration : 1h 29mn
Overall bit rate : 2 204 Kbps
Writing application : AVI-Mux GUI 1.17.8, Aug 30 2008 12:36:58
Video
Format : MPEG-4 Visual
Format profile : [email protected]
Format settings, BVOP : No
Format settings, QPel : No
Format settings, GMC : No warppoints
Format settings, Matrix : Default
Codec ID : DX50
Codec ID/Hint : DivX 5
Duration : 1h 29mn
Bit rate : 1 974 Kbps
Width : 720 pixels
Height : 480 pixels
Display aspect ratio : 1.500
Frame rate : 25.000 fps
Standard : NTSC
Resolution : 24 bits
Colorimetry : 4:2:0
Scan type : Progressive
Bits/(Pixel*Frame) : 0.229
Stream size : 1.24 GiB (90%)
Writing library : Lavc51.40.4
Audio
Format : AC-3
Format/Info : Audio Coding 3
Codec ID : 2000
Bit rate mode : Constant
Bit rate : 224 Kbps
Channel(s) : 6 channels
Channel positions : Front: L C R, Surround: L R, LFE
Sampling rate : 48.0 KHz
Stream size : 144 MiB (10%)
Alignment : Aligned on interleaves
Interleave, duration : 64 ms (1.60 video frames)
Interleave, preload duration : 192 ms
http://www.uploadhouse.com/viewfile.php?id=3434582&PHPSESSID=e417e436c6a54a343f948ee77ef28e3b</pre>

related torrents

Torrent name

health leech seeds Size
 

comments (0)

Main Menu