Pop

Antonello Venditti Diamanti Flac+Cuetntvillage scambioetico orgBy Ramasutra

  • Download 5x Faster
  • Download torrent
  • Direct Download
  • Rate this torrent +  |  -

Torrent info

Name:Antonello Venditti Diamanti Flac+Cuetntvillage scambioetico orgBy Ramasutra

Total Size: 1.54 GB

Magnet: Magnet Link

Seeds: 0

Leechers: 0

Stream: Watch Online @ Movie4u

Last Updated: 0000-00-00 00:00:00 (Update Now)

Torrent added: 2008-07-21 09:41:00




Torrent Files List


CD 1 (Size: 1.54 GB) (Files: 15)

 CD 1

  Unknown Artist - Unknown Title.cue

1.69 KB

  Unknown Artist - Unknown Title.flac

517.69 MB

  Unknown Title.log

3.04 KB

 CD 2

  Antonello Venditti - diamanti [cd 2].cue

1.70 KB

  Antonello Venditti - diamanti [cd 2].flac

525.37 MB

  diamanti [cd 2].log

3.05 KB

 CD 3

  Antonello Venditti - diamanti [cd 3].cue

1.89 KB

  Antonello Venditti - diamanti [cd 3].flac

529.88 MB

  diamanti [cd 3].log

3.15 KB

 COVER

  Antonello Venditti - Diamanti - Back.jpg

899.62 KB

  Antonello Venditti - Diamanti - CD (1-3).jpg

1.00 MB

  Antonello Venditti - Diamanti - CD (2-3).jpg

1.02 MB

  Antonello Venditti - Diamanti - CD (3-3).jpg

986.17 KB

  Antonello Venditti - Diamanti - Front.jpg

837.95 KB

  Antonello Venditti - Diamanti - Inside.jpg

1.73 MB
 

Announce URL:

Torrent description

b][color=green]:::->Cover<-:::[/color][/b]
Antonello Venditti   Diamanti Flac+Cuetntvillage scambioetico orgBy Ramasutra preview 0Antonello Venditti   Diamanti Flac+Cuetntvillage scambioetico orgBy Ramasutra preview 1

[color=green]:::->Dati Album<-:::[/color]


Autore: Antonello Venditti
Titolo: Diamanti
Anno:2006
Genere: Pop
Etichetta:rca
fonte cd /originale /cdda
Cover : Incluse
------------------------------------------------------------------------------------------------------------------------
[color=green]:::->Tracklist<-:::[/color]

CD 1
Alta marea
Che fantastica storia è la vita
Ci vorrebbe un amico
21 modi per dirti ti amo
Amici mai
Piero e Cinzia
Settembre
Questa insostenibile leggerezza dell'essere
Qui
Le tue mani su di me
Lo stambecco ferito
C'è un cuore che batte nel cuore
Giulia
Sotto il segno dei pesci
Roma capoccia

Antonello Venditti   Diamanti Flac+Cuetntvillage scambioetico orgBy Ramasutra preview 2
----------------------------------------------------------------------------------------------------------------------
CD 2
Ogni volta
Giulio Cesare
Benvenuti in Paradiso
Stella
Lacrime di pioggia
Sora Rosa
Dimmelo tu cos'è
Raggio di Luna
Il compleanno di Cristina
Le cose della vita
Compagno di scuola
Miraggi
Modena
Bomba o non bomba
Roma Roma
Antonello Venditti   Diamanti Flac+Cuetntvillage scambioetico orgBy Ramasutra preview 3
-----------------------------------------------------------------------------------------------------------------------
CD 3
In questo mondo di ladri
Mitico amore
Ricordati di me
Notte prima degli esami
Peppino
Segreti
Che tesoro che sei
Centocittà
Le ragazze di Monaco
Una stupida e lurida storia d'amore
Lilly
Mio padre ha un buco in gola
Sara
Buona domenica
Grazie Roma
L'amore insegna agli uomini
Antonello Venditti   Diamanti Flac+Cuetntvillage scambioetico orgBy Ramasutra preview 4

----------------------------------------------------------------------------------------------------------------------
Sono quarantasei i “Diamanti” selezionati da Antonello Venditti per questa tripla raccolta. Il cantautore romano ripercorre la propria intensa e longeva carriera dalle origini fino agli ultimi successi (non in ordine cronologico): si va da “Che fantastica storia è la vita” a “Compagno di scuola”, passando per “Amici mai”, “Ogni volta”, “Ricordati di me”, “Notte prima degli esami”, “Lilly” e tante altre.
La pubblicazione non comprende le versioni originali dei brani contenuti originariamente negli album pubblicati all'epoca con la Polygram, sostitute da versioni dal vivo.
Il primo album di Antonello Venditti “Theorius Campus” (con Francesco De Gregori) fu dato alle stampe nel 1972 dall’etichetta It.


-----------------------------------------------------------------------------------------------------------------------





[color=green]:::->Dati Tecnici<-:::[/color]

[color=red] Formato : Flac [/color]
Programma usato [Eac]

[CODE]
Exact Audio Copy V0.99 prebeta 3 from 28. July 2007

EAC extraction logfile from 16. July 2008, 9:27

Antonello Venditti / Diamanti cd 1

Used drive : _NEC DVD_RW ND-3550A Adapter: 5 ID: 0

Read mode : Secure
Utilize accurate stream : Yes
Defeat audio cache : Yes
Make use of C2 pointers : No

Read offset correction : 48
Overread into Lead-In and Lead-Out : No
Fill up missing offset samples with silence : Yes
Delete leading and trailing silent blocks : No
Null samples used in CRC calculations : No
Used interface : Installed external ASPI interface

Used output format : User Defined Encoder
Selected bitrate : 768 kBit/s
Quality : High
Add ID3 tag : No
Command line compressor : C:\Programmi\Exact Audio Copy\FLAC\FLAC.EXE
Additional command line options : -6 -V -T "ARTIST=%a" -T "TITLE=%t" -T "ALBUM=%g" -T "DATE=%y" -T "TRACKNUMBER=%n" -T "GENRE=%m" -T "COMMENT=%e" %s -o %d


TOC of the extracted CD

Track | Start | Length | Start sector | End sector
---------------------------------------------------------
1 | 0:00.00 | 5:17.53 | 0 | 23827
2 | 5:17.53 | 6:56.35 | 23828 | 55062
3 | 12:14.13 | 3:53.42 | 55063 | 72579
4 | 16:07.55 | 5:01.01 | 72580 | 95155
5 | 21:08.56 | 5:15.48 | 95156 | 118828
6 | 26:24.29 | 5:02.24 | 118829 | 141502
7 | 31:26.53 | 3:46.64 | 141503 | 158516
8 | 35:13.42 | 5:38.35 | 158517 | 183901
9 | 40:52.02 | 4:04.54 | 183902 | 202255
10 | 44:56.56 | 3:43.26 | 202256 | 219006
11 | 48:40.07 | 9:38.70 | 219007 | 262426
12 | 58:19.02 | 6:04.63 | 262427 | 289789
13 | 64:23.65 | 4:26.57 | 289790 | 309796
14 | 68:50.47 | 5:37.66 | 309797 | 335137
15 | 74:28.38 | 4:42.34 | 335138 | 356321


Range status and errors

Selected range

Filename D:\Documents and Settings\salvo.SN116508160310\Documenti\Unknown Artist - Unknown Title.wav

Peak level 100.0 %
Range quality 99.9 %
Test CRC E54C7262
Copy CRC 1065DF39
Copy OK

No errors occurred


AccurateRip summary

Track 1 not present in database
Track 2 not present in database
Track 3 not present in database
Track 4 not present in database
Track 5 not present in database
Track 6 not present in database
Track 7 not present in database
Track 8 not present in database
Track 9 not present in database
Track 10 not present in database
Track 11 not present in database
Track 12 not present in database
Track 13 not present in database
Track 14 not present in database
Track 15 not present in database

None of the tracks are present in the AccurateRip database

End of status report
-----------------------------------------------------------------------
cd 2


TOC of the extracted CD

Track | Start | Length | Start sector | End sector
---------------------------------------------------------
1 | 0:00.00 | 4:55.26 | 0 | 22150
2 | 4:55.26 | 5:55.73 | 22151 | 48848
3 | 10:51.24 | 5:32.11 | 48849 | 73759
4 | 16:23.35 | 3:55.61 | 73760 | 91445
5 | 20:19.21 | 3:58.30 | 91446 | 109325
6 | 24:17.51 | 4:15.05 | 109326 | 128455
7 | 28:32.56 | 4:26.50 | 128456 | 148455
8 | 32:59.31 | 6:44.23 | 148456 | 178778
9 | 39:43.54 | 5:22.62 | 178779 | 202990
10 | 45:06.41 | 2:48.55 | 202991 | 215645
11 | 47:55.21 | 5:58.36 | 215646 | 242531
12 | 53:53.57 | 5:29.29 | 242532 | 267235
13 | 59:23.11 | 8:07.28 | 267236 | 303788
14 | 67:30.39 | 6:11.55 | 303789 | 331668
15 | 73:42.19 | 3:15.34 | 331669 | 346327


Range status and errors

Selected range

Filename D:\Documents and Settings\salvo.SN116508160310\Documenti\Antonello Venditti - diamanti [cd 2].wav

Peak level 100.0 %
Range quality 99.9 %
Test CRC 3F30D96F
Copy CRC 3F30D96F
Copy OK

No errors occurred


AccurateRip summary

Track 1 not present in database
Track 2 not present in database
Track 3 not present in database
Track 4 not present in database
Track 5 not present in database
Track 6 not present in database
Track 7 not present in database
Track 8 not present in database
Track 9 not present in database
Track 10 not present in database
Track 11 not present in database
Track 12 not present in database
Track 13 not present in database
Track 14 not present in database
Track 15 not present in database

None of the tracks are present in the AccurateRip database

End of status report
-----------------------------------------------------------------------
cd 3


TOC of the extracted CD

Track | Start | Length | Start sector | End sector
---------------------------------------------------------
1 | 0:00.00 | 4:51.48 | 0 | 21872
2 | 4:51.48 | 5:23.56 | 21873 | 46153
3 | 10:15.29 | 5:14.63 | 46154 | 69766
4 | 15:30.17 | 4:44.46 | 69767 | 91112
5 | 20:14.63 | 3:28.41 | 91113 | 106753
6 | 23:43.29 | 4:46.17 | 106754 | 128220
7 | 28:29.46 | 5:23.60 | 128221 | 152505
8 | 33:53.31 | 5:18.17 | 152506 | 176372
9 | 39:11.48 | 3:45.55 | 176373 | 193302
10 | 42:57.28 | 4:05.41 | 193303 | 211718
11 | 47:02.69 | 6:06.06 | 211719 | 239174
12 | 53:09.00 | 3:59.43 | 239175 | 257142
13 | 57:08.43 | 4:06.47 | 257143 | 275639
14 | 61:15.15 | 6:27.52 | 275640 | 304716
15 | 67:42.67 | 4:00.45 | 304717 | 322761
16 | 71:43.37 | 4:17.37 | 322762 | 342073


Range status and errors

Selected range

Filename D:\Documents and Settings\salvo.SN116508160310\Documenti\Antonello Venditti - diamanti [cd 3].wav

Peak level 100.0 %
Range quality 100.0 %
Test CRC EB9CEC3B
Copy CRC EB9CEC3B
Copy OK

No errors occurred


AccurateRip summary

Track 1 not present in database
Track 2 not present in database
Track 3 not present in database
Track 4 not present in database
Track 5 not present in database
Track 6 not present in database
Track 7 not present in database
Track 8 not present in database
Track 9 not present in database
Track 10 not present in database
Track 11 not present in database
Track 12 not present in database
Track 13 not present in database
Track 14 not present in database
Track 15 not present in database
Track 16 not present in database

None of the tracks are present in the AccurateRip database

End of status report








[/CODE]

related torrents

Torrent name

health leech seeds Size
 


comments (0)

Main Menu