'Allo 'Allo!

Demons Staffel 1 Episode 1 3 OMU

  • Download 5x Faster
  • Download torrent
  • Direct Download
  • Rate this torrent +  |  -
Demons Staffel 1 Episode 1 3 OMU

Anonymous and Direct Download 300GB+ free


Torrent info

Name:Demons Staffel 1 Episode 1 3 OMU

Total Size: 1.02 GB

Magnet: Magnet Link

Seeds: 0

Leechers: 0

Stream: Watch Online @ Movie4u

Last Updated: 2015-10-20 07:22:37 (Update Now)

Torrent added: 2009-08-22 21:56:17




Torrent Files List


Demons.S01E03.WS.PDTV.XviD-RiVER.avi (Size: 1.02 GB) (Files: 6)

 Demons.S01E03.WS.PDTV.XviD-RiVER.avi

347.46 MB

 Demons.S01E02.WS.PDTV.XviD-RiVER.avi

348.25 MB

 Demons.S01E03.WS.PDTV.XviD-RiVER.german.tv4user.rar

19.24 KB

 Demons.S01E02.WS.PDTV.XviD-RiVER.german.tv4user.rar

19.32 KB

 Demons.UK.S01E01.WS.PDTV.XviD-ORGANiC.german.TV4User.rar

17.48 KB

 Demons.UK.S01E01.WS.PDTV.XviD-ORGANiC.avi

349.67 MB
 

Announce URL:

Torrent description

Demons is a British six-part supernatural television drama series produced by Shine Productions, which premired on ITV on 3 January 2009.[3] It is produced by the same company that made the Sky1 supernatural drama Hex and the BBC One fantasy series Merlin. The DVD of series one was released on 6 April 2009.
Contents

Sprache: English
Untertitel: Deutsch

Video

Format : MPEG-4 Visual

Format profile : Streaming [email protected]

Format settings, BVOP : Yes

Format settings, QPel : No

Format settings, GMC : No warppoints

Format settings, Matrix : Default (H.263)

Muxing mode : Packed bitstream

Codec ID : XVID

Codec ID/Hint : XviD

Duration : 43mn 56s

Bit rate : 964 Kbps

Width : 640 pixels

Height : 352 pixels

Display aspect ratio : 16/9

Frame rate : 25.000 fps

Resolution : 24 bits

Colorimetry : 4:2:0

Scan type : Progressive

Bits/(Pixel*Frame) : 0.171

Stream size : 303 MiB (87)

Writing library : XviD 1.2.1 (UTC 2008-12-04)



Audio

Format : MPEG Audio

Format version : Version 1

Format profile : Layer 3

Codec ID : 55

Codec ID/Hint : MP3

Duration : 43mn 56s

Bit rate mode : Variable

Bit rate : 130 Kbps

Nominal bit rate : 128 Kbps

Channel(s) : 2 channels

Sampling rate : 48.0 KHz

Resolution : 16 bits

Stream size : 41.1 MiB (12)

Alignment : Aligned on interleaves

Interleave, duration : 24 ms (0.60 video frame)

Interleave, preload duration : 531 ms

Writing library : LAME3.90.

Encoding settings : -m j -V 4 -q 2 -lowpass 17.6 --abr 128

related torrents

Torrent name

health leech seeds Size

True Love (OMU) avi

10 8 800.34 MB 0

The Lost Coast (OMU) avi

6 5 801.40 MB 0
 


comments (0)

Main Menu