'Allo 'Allo!

Afterlife S01 DVDRip XViD iNFiNiTE

  • Download 5x Faster
  • Download torrent
  • Direct Download
  • Rate this torrent +  |  -
Afterlife S01 DVDRip XViD iNFiNiTE

Free and Direct Download with Usenet.nl 300GB+ free


Torrent info

Name:Afterlife S01 DVDRip XViD iNFiNiTE

Total Size: 2.05 GB

Magnet: Magnet Link

Seeds: 0

Leechers: 0

Stream: Watch Online @ Movie4u

Last Updated: 2015-01-30 11:33:06 (Update Now)

Torrent added: 2009-08-22 21:42:39





Torrent Files List


Torrent downloaded from Demonoid.com.txt (Size: 2.05 GB) (Files: 20)

 Torrent downloaded from Demonoid.com.txt

0.05 KB

 Afterlife.S01E06.The.7.59.Club.DVDRip.XViD-iNFiNiTE.srt

28.60 KB

 Afterlife.S01E06.The.7.59.Club.DVDRip.XViD-iNFiNiTE.en.srt

31.79 KB

 Afterlife.S01E06.The.7.59.Club.DVDRip.XViD-iNFiNiTE.avi

350.01 MB

 Afterlife.S01E05.Sleeping.With.The.Dead.DVDRip.XViD-iNFiNiTE.srt

33.43 KB

 Afterlife.S01E05.Sleeping.With.The.Dead.DVDRip.XViD-iNFiNiTE.en.srt

33.80 KB

 Afterlife.S01E05.Sleeping.With.The.Dead.DVDRip.XViD-iNFiNiTE.avi

349.96 MB

 Afterlife.S01E04.Misdirection.DVDRip.XViD-iNFiNiTE.srt

32.88 KB

 Afterlife.S01E04.Misdirection.DVDRip.XViD-iNFiNiTE.en.srt

35.08 KB

 Afterlife.S01E04.Misdirection.DVDRip.XViD-iNFiNiTE.avi

349.96 MB

 Afterlife.S01E03.Daniel.One.And.Two.DVDRip.XViD-iNFiNiTE.srt

35.24 KB

 Afterlife.S01E03.Daniel.One.And.Two.DVDRip.XViD-iNFiNiTE.en.srt

36.86 KB

 Afterlife.S01E03.Daniel.One.And.Two.DVDRip.XViD-iNFiNiTE.avi

350.01 MB

 Afterlife.S01E02.Lower.Than.Bones.DVDRip.XViD-iNFiNiTE.srt

35.94 KB

 Afterlife.S01E02.Lower.Than.Bones.DVDRip.XViD-iNFiNiTE.en.srt

37.43 KB

 Afterlife.S01E01.More.Than.Meets.The.Eye.DVDRip.XViD-iNFiNiTE.avi

350.02 MB

 Afterlife.S01E02.Lower.Than.Bones.DVDRip.XViD-iNFiNiTE.avi

350.01 MB

 Afterlife.S01E01.More.Than.Meets.The.Eye.DVDRip.XViD-iNFiNiTE.srt

37.36 KB

 Afterlife.S01E01.More.Than.Meets.The.Eye.DVDRip.XViD-iNFiNiTE.en.srt

39.71 KB

 afterlife.jpg

18.85 KB
 

Announce URL:

Torrent description

University lecturer Robert Bridge (Andrew Lincoln) becomes involved in a series of supernatural events surrounding medium Alison Mundy (Lesley Sharp) in this chilling TV series.


General

Format : AVI
File size : 350 MiB
Overall bit rate : 1 039 Kbps
Writing application : VirtualDubMod 1.5.4.1 (build 2178/release)
Writing library : VirtualDubMod build 2178/release

Video
Format : MPEG-4 Visual
Format profile : Streaming [email protected]
Format settings, BVOP : Yes
Codec ID : XVID
Bit rate : 895 Kbps
Width : 640 pixels
Height : 368 pixels
Display aspect ratio : 16/9
Frame rate : 25.000 fps
Resolution : 24 bits
Colorimetry : 4:2:0
Scan type : Progressive
Bits/(Pixel*Frame) : 0.152
Stream size : 301 MiB (86%)
Writing library : XviD 1.1.0 (UTC 2005-11-22)

Audio
Format : MPEG Audio
Format version : Version 1
Format profile : Layer 3
Codec ID : 55
Codec ID/Hint : MP3
Bit rate mode : Variable
Bit rate : 132 Kbps
Nominal bit rate : 128 Kbps
Channel(s) : 2 channels
Sampling rate : 48.0 KHz
Resolution : 16 bits
Stream size : 44.4 MiB (13%)
Alignment : Aligned on interleaves
Interleave, duration : 24 ms (0.60 video frame)
Interleave, preload duration : 139 ms
Writing library : LAME3.96r
Encoding settings : -m j -V 4 -q 2 -lowpass 17.5 --abr 128
Language : English



Subtitles: SRT, english and croatian

related torrents

Torrent name

health leech seeds Size
 

comments (0)

Main Menu