Horror

The Forest (1982) DVDRip KooKoo 1337x

  • Download 5x Faster
  • Download torrent
  • Direct Download
  • Rate this torrent +  |  -
The Forest (1982) DVDRip KooKoo 1337x

Anonymous and Free Direct Download 300GB+


Torrent info

Name:The Forest (1982) DVDRip KooKoo 1337x

Total Size: 919.41 MB

Magnet: Magnet Link

Seeds: 1

Leechers: 30

Stream: Watch Online @ Movie4u

Last Updated: 2010-11-29 06:01:13 (Update Now)

Torrent added: 2008-07-21 06:34:27



VPN For Torrents

Torrent Files List


1337x.org.txt (Size: 919.41 MB) (Files: 4)

 1337x.org.txt

0.02 KB

 KooKoo.NFO

14.64 KB

 Sample.avi

6.32 MB

 The Forest (1982) [DVDRip] [KooKoo].avi

913.08 MB
 

Announce URL: http://tpb.tracker.thepiratebay.org:80/announce

Torrent description


ÛÛÛÛÛÛÛÛÛÛÛÛÛÛÛÛÛÛÛÛÛÛÛÛÛÛÛÛÛÛÛÛÛÛÛÛÛÛÛÛÛÛÛÛÛÛÛÛÛÛÛÛÛÛÛÛÛÛÛÛÛÛÛÛÛÛÛÛÛÛÛÛÛÛÛÛÛÛÛÛ
Û Û
Û ÛÛÛÛÛÛÛÛÛ ÛÛÛÛÛÛ ÛÛÛÛÛÛÛÛÛ ÛÛÛÛÛÛ Û
Û ÛÛ±±±±±±ÛÛÛÛ±±±Û ÛÛ±±±±±±ÛÛÛÛ±±±Û Û
Û ÛÛÛÛ±±±±ÛÛÛ±±±ÛÛ ÛÛÛÛ±±±±ÛÛÛ±±±ÛÛ Û
Û Û±±±±ÛÛ±±±ÛÛ Û±±±±ÛÛ±±±ÛÛ Û Û
Û Û±±±ÛÛ±±±ÛÛ ÛÛÛÛ ÛÛÛÛ Û±±±ÛÛ±±±ÛÛ ÛÛÛÛ ÛÛÛÛ ÛÛÛ Û
Û Û±±±±±±±ÛÛ Û±±±±Û±±±±Û Û±±±±±±±ÛÛ Û±±±±Û±±±±Û Û±Û Û
Û Û±±±±±±ÛÛ Û±±ÛÛ±±±ÛÛ±±Û Û±±±±±±ÛÛ Û±±ÛÛ±±±ÛÛ±±Û Û±Û Û
Û Û±±±±±±ÛÛ Û±±ÛÛ±±±ÛÛ±±Û Û±±±±±±ÛÛ Û±±ÛÛ±±±ÛÛ±±Û Û±Û Û
² Û±±±±±±±ÛÛ Û±±±±Û±±±±Û Û±±±±±±±ÛÛ Û±±±±Û±±±±Û Û±Û ²
Û Û±±±ÛÛ±±±ÛÛ ÛÛÛÛ ÛÛÛÛ Û±±±ÛÛ±±±ÛÛ ÛÛÛÛ ÛÛÛÛ Û±Û Û
Û Û±±±±ÛÛ±±±ÛÛ Û±±±±ÛÛ±±±ÛÛ Û±Û Û
Û ÛÛÛÛ±±±±ÛÛÛ±±±ÛÛÛ ÛÛÛÛ±±±±ÛÛÛ±±±ÛÛÛ ÛÛÛÛÛÛ±ÛÛÛÛÛÛ Û
Û ÛÛ±±±±±±Û ÛÛ±±±ÛÛ ÛÛ±±±±±±Û ÛÛ±±±ÛÛ ÛÛ±±±±±±±±±±±ÛÛ Û
Û ÛÛÛÛÛÛÛÛÛ ÛÛÛÛÛÛ ÛÛÛÛÛÛÛÛÛ ÛÛÛÛÛÛ ÛÛÛÛÛÛ±ÛÛÛÛÛÛ Û
Û ÛÛÛ Û
Û Û Û
Û Û
Û Û
Û Û
ÛÛÛÛÛÛÛÛÛÛÛÛÛÛÛÛÛÛÛÛÛÛÛÛÛÛÛÛÛÛÛÛÛÛÛÛÛÛÛÛÛÛÛÛÛÛÛÛÛÛÛÛÛÛÛÛÛÛÛÛÛÛÛÛÛÛÛÛÛÛÛÛÛÛÛÛÛÛÛÛ
Û±±±±±±±±±±±±±±±±±±±±±±±±±±±±±±±±±±±±±±±±±±±±±±±±±±±±±±±±±±±±±±±±±±±±±±±±±±±±±±Û
Û±±±±±±±±±±±±±±±±±±±±±±±±±MOVIE INFO.±±±±±±±±±±±±±±±±±±±±±±±±±±±±±±±±±±±±±±±±±±Û
Û±±±±±±±±±±±±±±±±±±±±±±±±±±±±±±±±±±±±±±±±±±±±±±±±±±±±±±±±±±±±±±±±±±±±±±±±±±±±±±Û
ÛÛÛÛÛÛÛÛÛÛÛÛÛÛÛÛÛÛÛÛÛÛÛÛÛÛÛÛÛÛÛÛÛÛÛÛÛÛÛÛÛÛÛÛÛÛÛÛÛÛÛÛÛÛÛÛÛÛÛÛÛÛÛÛÛÛÛÛÛÛÛÛÛÛÛÛÛÛÛÛ
Û Û
Û Release Date:...>1982 (USA) Û
Û Û
Û Movie Name:...>The Forest Û
Û Û
Û Production Year: ..>1980 Û
Û Û
Û Genre:...>Horror/slasher Û
Û Û
Û Runtime:...>85 mins Û
² ²
Û Country:...>USA Û
Û Û
Û Language:...>English Û
Û Û
Û Certification:...>R Û
Û Û
Û Director:...>Donald M. Jones Û
Û Û
Û Full IMDB Details:...>h**p://www.imdb.com/title/tt0122070/ Û
Û Û
² ²
ÛÛÛÛÛÛÛÛÛÛÛÛÛÛÛÛÛÛÛÛÛÛÛÛÛÛÛÛÛÛÛÛÛÛÛÛÛÛÛÛÛÛÛÛÛÛÛÛÛÛÛÛÛÛÛÛÛÛÛÛÛÛÛÛÛÛÛÛÛÛÛÛÛÛÛÛÛÛÛÛ
Û±±±±±±±±±±±±±±±±±±±±±±±±±±±±±±±±±±±±±±±±±±±±±±±±±±±±±±±±±±±±±±±±±±±±±±±±±±±±±±Û
Û±±±±±±±±±±±±±±±±±±±±±±±±±±SYNOPSIS.±±±±±±±±±±±±±±±±±±±±±±±±±±±±±±±±±±±±±±±±±±±Û
ÛÛÛÛÛÛÛÛÛÛÛÛÛÛÛÛÛÛÛÛÛÛÛÛÛÛÛÛÛÛÛÛÛÛÛÛÛÛÛÛÛÛÛÛÛÛÛÛÛÛÛÛÛÛÛÛÛÛÛÛÛÛÛÛÛÛÛÛÛÛÛÛÛÛÛÛÛÛÛÛ
Û Û
Û Û
Û Û
Û Û
Û Û
Û Û
Û Û
Û Two couples plan a trip into the forest. But they didn't count on a killer Û
² on the loose with a taste for human flesh! Haunted by the ghosts of his ²
Û children, the killer is eventually double-crossed as the ghosts of his Û
Û children come to the aid of the campers in this unique entry into Û
Û the killer-in-the-woods genre. From 70's exploitation director Don Jones Û
Û (Lethal Pursuit, Schoolgirls In Chains), featuring cult star Gary Û
Û Kent (Satan's Sadists, Thrill Killers), Stafford Morgan (Legend Of Bigfoot) Û
Û and Corky Pigeon (TV'S Silver Spoons). Û
Û Û
Û Û
Û Û
Û Û
Û Û
Û Û
Û Û
² ²
Û Û
Û Û
Û Û
Û Û
Û Û
Û Û
Û Û
ÛÛÛÛÛÛÛÛÛÛÛÛÛÛÛÛÛÛÛÛÛÛÛÛÛÛÛÛÛÛÛÛÛÛÛÛÛÛÛÛÛÛÛÛÛÛÛÛÛÛÛÛÛÛÛÛÛÛÛÛÛÛÛÛÛÛÛÛÛÛÛÛÛÛÛÛÛÛÛÛ
Û±±±±±±±±±±±±±±±±±±±±±±±±±±±±±±±±±±±±±±±±±±±±±±±±±±±±±±±±±±±±±±±±±±±±±±±±±±±±±±Û
Û±±±±±±±±±±±±±±±±±±±±±±±±±FILE INFORMATION.±±±±±±±±±±±±±±±±±±±±±±±±±±±±±±±±±±±±Û
Û±±±±±±±±±±±±±±±±±±±±±±±±±±±±±±±±±±±±±±±±±±±±±±±±±±±±±±±±±±±±±±±±±±±±±±±±±±±±±±Û
ÛÛÛÛÛÛÛÛÛÛÛÛÛÛÛÛÛÛÛÛÛÛÛÛÛÛÛÛÛÛÛÛÛÛÛÛÛÛÛÛÛÛÛÛÛÛÛÛÛÛÛÛÛÛÛÛÛÛÛÛÛÛÛÛÛÛÛÛÛÛÛÛÛÛÛÛÛÛÛÛ
Û Û
ÛGeneral Û
ÛFormat : AVI Û
ÛFormat/Info : Audio Video Interleave Û
ÛFile size : 913 MiB Û
ÛDuration : 1h 26mn Û
ÛOveral bit rate : 1483 Kbps Û
ÛMovie name : The Forest (1982) [DVDRip] [KooKoo] Û
ÛWriting application : VirtualDubMod 1.5.10.2 (build 2540/release)Û
ÛCopyright : Ripped By KooKoo Û
ÛComment : Subtitles NOT included Û
Û Û
ÛVideo Û
ÛFormat : MPEG-4 Visual Û
ÛFormat profile : Simple@L3 Û
ÛFormat settings, BVOP : No Û
ÛFormat settings, QPel : No Û
ÛFormat settings, GMC : No warppoints Û
ÛFormat settings, Matrix : Default Û
ÛCodec ID : XVID Û
ÛCodec ID/Hint : XviD Û
ÛDuration : 1h 26mn Û
ÛBit rate : 1346 Kbps Û
ÛWidth : 624 pixels Û
ÛHeight : 352 pixels Û
ÛDisplay aspect ratio : 16/9 Û
ÛFrame rate : 23.976 fps Û
ÛResolution : 8 bits Û
ÛColorimetry : 4:2:0 Û
ÛScan type : Progressive Û
ÛBits/(Pixel*Frame) : 0.256 Û
²Stream size : 829 MiB ²
ÛWriting library : XviD 1.1.2 (UTC 2006-11-01) Û
Û Û
ÛAudio Û
ÛFormat : MPEG Audio Û
ÛFormat version : Version 1 Û
ÛFormat profile : Layer 3 Û
ÛCodec ID : 55 Û
ÛCodec ID/Hint : MP3 Û
ÛDuration : 1h 25mn Û
ÛBit rate mode : Constant Û
ÛBit rate : 128 Kbps Û
ÛChannel(s) : 2 channels Û
ÛSampling rate : 48.0 KHz Û
²Resolution : 16 bits ²
ÛStream size : 78.5 MiB Û
ÛLanguage : english Û
Û Û
Û Û
Û Û
ÛÛÛÛÛÛÛÛÛÛÛÛÛÛÛÛÛÛÛÛÛÛÛÛÛÛÛÛÛÛÛÛÛÛÛÛÛÛÛÛÛÛÛÛÛÛÛÛÛÛÛÛÛÛÛÛÛÛÛÛÛÛÛÛÛÛÛÛÛÛÛÛÛÛÛÛÛÛÛÛ
Û±±±±±±±±±±±±±±±±±±±±±±±±±±±±±±±±±±±±±±±±±±±±±±±±±±±±±±±±±±±±±±±±±±±±±±±±±±±±±±Û
Û±±±±±±±±±±±±±±±±±±±±±±±SOURCE INFORMATION.±±±±±±±±±±±±±±±±±±±±±±±±±±±±±±±±±±±±Û
Û±±±±±±±±±±±±±±±±±±±±±±±±±±±±±±±±±±±±±±±±±±±±±±±±±±±±±±±±±±±±±±±±±±±±±±±±±±±±±±Û
ÛÛÛÛÛÛÛÛÛÛÛÛÛÛÛÛÛÛÛÛÛÛÛÛÛÛÛÛÛÛÛÛÛÛÛÛÛÛÛÛÛÛÛÛÛÛÛÛÛÛÛÛÛÛÛÛÛÛÛÛÛÛÛÛÛÛÛÛÛÛÛÛÛÛÛÛÛÛÛÛ
Û Û
Û Û
Û Number of disks:...>1 Û
Û Û
² Release Date:...>5/6/2008 ²
Û Û
Û Length:...>85 mins Û
Û Û
Û Format:...>DVD Û
Û Û
Û System:...>NTSC Û
Û Û
Û Aspect Ratio:...>Widescreen 1.85:1 Û
Û Û
Û Classification:...>R Û
Û Û
Û Region...>0 Û
² ²
² Studio:...>Code Red ²
² ²
Û Subtitles:...>None Û
Û Û
ÛÛÛÛÛÛÛÛÛÛÛÛÛÛÛÛÛÛÛÛÛÛÛÛÛÛÛÛÛÛÛÛÛÛÛÛÛÛÛÛÛÛÛÛÛÛÛÛÛÛÛÛÛÛÛÛÛÛÛÛÛÛÛÛÛÛÛÛÛÛÛÛÛÛÛÛÛÛÛÛ

.............>Ripped By KooKoo..........>Posted KooKoo.........................>

ÛÛÛÛÛÛÛÛÛÛÛÛ ÛÛÛÛÛÛÛÛÛÛÛÛ ÛÛÛÛÛÛÛÛÛÛÛÛ
ÛÛÛ°°°°°°°°ÛÛÛ ÛÛÛ°°°°°°°°ÛÛÛ ÛÛÛ°°°°°°°°ÛÛÛ
ÛÛ°°°°°°6°°°°°ÛÛ ÛÛ°°°°°°6°°°°°ÛÛ ÛÛ°°°°°°6°°°°°ÛÛ
ÛÛ°°°°°°°°°°°°°°ÛÛ ÛÛ°°°°°°°°°°°°°°ÛÛ ÛÛ°°°°°°°°°°°°°°ÛÛ
Û°°°°°°°°°°°°°°°°Û Û°°°°°°°°°°°°°°°°Û Û°°°°°°°°°°°°°°°°Û
Û°°°°°°°°°°°°°°°°Û Û°°°°°°°°°°°°°°°°Û Û°°°°°°°°°°°°°°°°Û
Û°°ÛÛÛÛÛ°°ÛÛÛÛÛ°°Û Û°°ÛÛÛÛÛ°°ÛÛÛÛÛ°°Û Û°°ÛÛÛÛÛ°°ÛÛÛÛÛ°°Û
Û°ÛÛÛÛÛÛ°°ÛÛÛÛÛÛ°Û Û°ÛÛÛÛÛÛ°°ÛÛÛÛÛÛ°Û Û°ÛÛÛÛÛÛ°°ÛÛÛÛÛÛ°Û
Û°ÛÛÛÛÛ°ÛÛ°ÛÛÛÛÛ°Û Û°ÛÛÛÛÛ°ÛÛ°ÛÛÛÛÛ°Û Û°ÛÛÛÛÛ°ÛÛ°ÛÛÛÛÛ°Û
ÛÛ°Û°°°ÛÛÛÛ°°°°°ÛÛ ÛÛ°Û°°°ÛÛÛÛ°°°°°ÛÛ ÛÛ°Û°°°ÛÛÛÛ°°°°°ÛÛ
Û°°°°°Û°°Û°°°°°Û Û°°°°°Û°°Û°°°°°Û Û°°°°°Û°°Û°°°°°Û
ÛÛÛÛ°°°°°°°°ÛÛÛÛ ÛÛÛÛ°°°°°°°°ÛÛÛÛ ÛÛÛÛ°°°°°°°°ÛÛÛÛ
ÛÛÛÛÛÛÛÛ°Û ÛÛÛÛÛÛÛÛ°Û ÛÛÛÛÛÛÛÛ°Û
Û°ÛÛ°ÛÛÛÛÛ Û°ÛÛ°ÛÛÛÛÛ Û°ÛÛ°ÛÛÛÛÛ
ÛÛ°°°°°°ÛÛ ÛÛ°°°°°°ÛÛ ÛÛ°°°°°°ÛÛ
ÛÛÛÛÛÛÛÛ ÛÛÛÛÛÛÛÛ ÛÛÛÛÛÛÛÛ







related torrents

Torrent name

health leech seeds Size
 


comments (0)

Main Menu