Action

[IT]FearFM Hardstyle Top 40 May 2009

  • Download 5x Faster
  • Download torrent
  • Direct Download
  • Rate this torrent +  |  -
[IT]FearFM Hardstyle Top 40 May 2009

Free and Direct Download with Usenet.nl 300GB+ free


Torrent info

Name:[IT]FearFM Hardstyle Top 40 May 2009

Total Size: 161.30 MB

Magnet: Magnet Link

Seeds: 0

Leechers: 0

Stream: Watch Online @ Movie4u

Last Updated: 2010-08-09 18:03:41 (Update Now)

Torrent added: 2009-08-22 21:39:24





Torrent Files List


FearFM Hardstyle Top 40 May 2009.mp3 (Size: 161.30 MB) (Files: 2)

 FearFM Hardstyle Top 40 May 2009.mp3

161.30 MB

 FearFM Hardstyle Top 40 May 2009.txt

1.58 KB
 

Announce URL: http://intertracker.org/announce.php

Torrent description

Eragon.2006.German.DTS.DL.1080p.BluRay.x264-SightHD






Ein Junge Ein Drache Eine Welt voller Abenteuer Als Eragon im Wald einen glänzenden
blauen Stein entdeckt, hält er ihn für einen glücklichen Fund. Er könnte ihm und
seiner Familie helfen, mit den davon erworbenen Lebensmitteln den Winter
zu überdauern. Als aber aus dem Stein ein Drachenjunges schlüpft,
erkennt Eragon, dass er über ein Erbe gestolpert ist, das älter
ist als das Königreich selbst: das Vermächtnis der Drachenreiter.
Über Nacht zerfällt Eragons einfaches Leben und er wird in eine
gefährliche neue Welt gestürzt. Nur mit einem sagenumwobenen
Schwert und dem Geleit eines alten Märchenerzählers müssen sich
Eragon und der junge Drache durch das gefährliche Terrain eines
Landes voller dunkler Feinde schlagen, beherrscht von einem König,
dessen Grausamkeit keine Grenzen kennt. Wird sich Eragon als würdig
erweisen, das Erbe der legendären Drachenreiter anzutreten? Das Schicksal
der Welt könnte in seinen Händen liegen






File size : 8.51 GiB
Duration : 1h 44mn
Overall bit rate : 11.7 Mbps
Encoded date : UTC 2008-04-18 18:21:58
Writing application : mkvmerge v2.1.0 (\'Another Place To Fall\') built on Aug 19 2007 13:40:07
Writing library : libebml v0.7.7 + libmatroska v0.8.1

Video
ID : 1
Format : AVC
Format/Info : Advanced Video Codec
Format profile : [email protected]
Format settings, CABAC : Yes
Format settings, ReFrames : 8 frames
Muxing mode : Container [email protected]
Codec ID : V_MPEG4/ISO/AVC
Duration : 1h 43mn
Bit rate : 9 168 Kbps
Nominal bit rate : 9 423 Kbps
Width : 1 920 pixels
Height : 816 pixels
Display aspect ratio : 2.35
Frame rate : 23.976 fps
Resolution : 24 bits
Colorimetry : 4:2:0
Scan type : Progressive
Bits/(Pixel*Frame) : 0.244
Stream size : 6.66 GiB (78)
Writing library : x264 core 57 svn-709C
Encoding settings : cabac=1 / ref=5 / deblock=1:0:0 / analyse=0x3:0x113 / me=umh / fpel_cmp=sad / subme=6 / me-prepass=0 / brdo=1 / mixed_ref=1 / me_range=16 / chroma_me=1 / trellis=1 / 8x8dct=1 / cqm=2 / deadzone=4,6 / chroma_qp_offset=0 / threads=3 / nr=0 / decimate=1 / mbaff=0 / bframes=3 / b_pyramid=1 / b_adapt=1 / b_bias=0 / direct=3 / wpredb=1 / bime=1 / keyint=250 / keyint_min=25 / scenecut=40(pre) / rc=2pass / bitrate=9423 / ratetol=1.0 / rceq=\'blurCplx(1-qComp)\' / qcomp=0.60 / qpmin=10 / qpmax=51 / qpstep=4 / cplxblur=20.0 / qblur=0.5 / ip_ratio=1.40 / pb_ratio=1.30 / zones=140198,149663,b=0.2 / aq=1:0.3:15.0
Language : English

Audio #1
ID : 2
Format : DTS
Format/Info : Digital Theater Systems
Codec ID : A_DTS
Duration : 1h 44mn
Bit rate mode : Constant
Bit rate : 768 Kbps
Channel(s) : 6 channels
Channel positions : Front: L C R, Surround: L R, LFE
Sampling rate : 48.0 KHz
Resolution : 24 bits
Stream size : 571 MiB (7)
Language : German

Audio #2
ID : 3
Format : DTS
Format/Info : Digital Theater Systems
Codec ID : A_DTS
Duration : 1h 44mn
Bit rate mode : Constant
Bit rate : 1 536 Kbps
Channel(s) : 6 channels
Channel positions : Front: L C R, Surround: L R, LFE
Sampling rate : 48.0 KHz
Resolution : 24 bits
Stream size : 1.12 GiB (13)
Language : English

related torrents

Torrent name

health leech seeds Size
 

comments (0)

Main Menu