Alternative

Regina Spektor Songs {Flac}

  • Download 5x Faster
  • Download torrent
  • Direct Download
  • Rate this torrent +  |  -
Regina Spektor Songs {Flac}

Anonymous and Free Direct Download 300GB+


Torrent info

Name:Regina Spektor Songs {Flac}

Total Size: 234.29 MB

Magnet: Magnet Link

Seeds: 0

Leechers: 0

Stream: Watch Online @ Movie4u

Last Updated: 2016-10-29 00:26:20 (Update Now)

Torrent added: 2009-08-22 21:32:26



VPN For Torrents

Torrent Files List


Songs (Size: 234.29 MB) (Files: 14)

 Songs

  Songs.cue

2.32 KB

  Regina Spektor - Songs.log

11.34 KB

  (12) Regina Spektor - Ne Me Quitte Pas.flac

21.74 MB

  (11) Regina Spektor - Lulliby.flac

11.12 MB

  (10) Regina Spektor - Lacrimosa.flac

26.01 MB

  (09) Regina Spektor - Lounge.flac

17.08 MB

  (08) Regina Spektor - Aching to Pupate.flac

8.95 MB

  (07) Regina Spektor - Bon Idée.flac

18.53 MB

  (06) Regina Spektor - Daniel Cowman.flac

24.10 MB

  (05) Regina Spektor - Consequence of Sounds.flac

25.05 MB

  (04) Regina Spektor - Reading Time With Pickle.flac

25.80 MB

  (03) Regina Spektor - Prisoners.flac

13.90 MB

  (02) Regina Spektor - Oedipus.flac

24.17 MB

  (01) Regina Spektor - Samson.flac

17.83 MB
 

tracker

leech seeds
 

Torrent description

This is Regina Spektors second CD "Songs". It is becoming hard to find so I uploaded a lossless copy for those of you who don't want to pay more than you should have to.

It includes a "Cue" and "Log" file and was ripped with EAC.







Ripping Info:
Exact Audio Copy V0.99 prebeta 3 from 28. July 2007

EAC extraction logfile from 12. January 2008, 13:40

Regina Spektor / Songs

Used drive : TEAC CDRWDVD DW224EV Adapter: 1 ID: 0

Read mode : Secure
Utilize accurate stream : Yes
Defeat audio cache : Yes
Make use of C2 pointers : No

Read offset correction : 102
Overread into Lead-In and Lead-Out : No
Fill up missing offset samples with silence : Yes
Delete leading and trailing silent blocks : No
Null samples used in CRC calculations : Yes
Used interface : Native Win32 interface for Win NT & 2000
Gap handling : Not detected, thus appended to previous track

Used output format : User Defined Encoder
Selected bitrate : 320 kBit/s
Quality : High
Add ID3 tag : No
Command line compressor : C:\Program Files\FLAC\flac.exe
Additional command line options : -5 -V -T "artist=%a" -T "title=%t" -T "album=%g" -T "date=%y" -T "tracknumber=%n" -T "genre=%m" -T comment="%e" -T "comment=EAC (Secure Mode)" %s


TOC of the extracted CD

Track | Start | Length | Start sector | End sector
---------------------------------------------------------
1 | 0:00.74 | 3:54.30 | 74 | 17653
2 | 3:55.29 | 4:50.17 | 17654 | 39420
3 | 8:45.46 | 3:02.13 | 39421 | 53083
4 | 11:47.59 | 5:33.72 | 53084 | 78130
5 | 17:21.56 | 5:09.29 | 78131 | 101334
6 | 22:31.10 | 4:51.21 | 101335 | 123180
7 | 27:22.31 | 4:10.60 | 123181 | 141990
8 | 31:33.16 | 2:13.27 | 141991 | 151992
9 | 33:46.43 | 3:34.53 | 151993 | 168095
10 | 37:21.21 | 5:14.32 | 168096 | 191677
11 | 42:35.53 | 2:27.25 | 191678 | 202727
12 | 45:03.03 | 4:38.44 | 202728 | 223621


Track 1

Filename C:\Users\Devon\Documents\Downloads\Regina Spektor\Songs\(01) Regina Spektor - Samson.wav

Peak level 98.8 %
Track quality 100.0 %
Test CRC 3DA8CD8C
Copy CRC 3DA8CD8C
Accurately ripped (confidence 2) [72BA0783]
Copy OK

Track 2

Filename C:\Users\Devon\Documents\Downloads\Regina Spektor\Songs\(02) Regina Spektor - Oedipus.wav

Peak level 98.8 %
Track quality 99.9 %
Test CRC 03D15F76
Copy CRC 03D15F76
Accurately ripped (confidence 2) [EBA46CA6]
Copy OK

Track 3

Filename C:\Users\Devon\Documents\Downloads\Regina Spektor\Songs\(03) Regina Spektor - Prisoners.wav

Peak level 98.8 %
Track quality 100.0 %
Test CRC A20E1238
Copy CRC A20E1238
Accurately ripped (confidence 2) [4E4F914F]
Copy OK

Track 4

Filename C:\Users\Devon\Documents\Downloads\Regina Spektor\Songs\(04) Regina Spektor - Reading Time With Pickle.wav

Peak level 98.8 %
Track quality 100.0 %
Test CRC 8C2ABE68
Copy CRC 8C2ABE68
Accurately ripped (confidence 2) [073A0E8C]
Copy OK

Track 5

Filename C:\Users\Devon\Documents\Downloads\Regina Spektor\Songs\(05) Regina Spektor - Consequence of Sounds.wav

Peak level 98.8 %
Track quality 100.0 %
Test CRC 7D792BFB
Copy CRC 7D792BFB
Accurately ripped (confidence 2) [41824C33]
Copy OK

Track 6

Filename C:\Users\Devon\Documents\Downloads\Regina Spektor\Songs\(06) Regina Spektor - Daniel Cowman.wav

Peak level 98.8 %
Track quality 100.0 %
Test CRC 9C3996F6
Copy CRC 9C3996F6
Accurately ripped (confidence 2) [DE87A99B]
Copy OK

Track 7

Filename C:\Users\Devon\Documents\Downloads\Regina Spektor\Songs\(07) Regina Spektor - Bon Idée.wav

Peak level 98.8 %
Track quality 100.0 %
Test CRC 1C796C23
Copy CRC 1C796C23
Accurately ripped (confidence 2) [642F1E80]
Copy OK

Track 8

Filename C:\Users\Devon\Documents\Downloads\Regina Spektor\Songs\(08) Regina Spektor - Aching to Pupate.wav

Peak level 98.8 %
Track quality 100.0 %
Test CRC BFF7E048
Copy CRC BFF7E048
Accurately ripped (confidence 2) [0696D163]
Copy OK

Track 9

Filename C:\Users\Devon\Documents\Downloads\Regina Spektor\Songs\(09) Regina Spektor - Lounge.wav

Peak level 98.8 %
Track quality 100.0 %
Test CRC 068A4898
Copy CRC 068A4898
Accurately ripped (confidence 2) [F93A4964]
Copy OK

Track 10

Filename C:\Users\Devon\Documents\Downloads\Regina Spektor\Songs\(10) Regina Spektor - Lacrimosa.wav

Peak level 98.8 %
Track quality 99.9 %
Test CRC 5BFAE90C
Copy CRC 5BFAE90C
Accurately ripped (confidence 2) [BEEF7710]
Copy OK

Track 11

Filename C:\Users\Devon\Documents\Downloads\Regina Spektor\Songs\(11) Regina Spektor - Lulliby.wav

Peak level 98.8 %
Track quality 100.0 %
Test CRC 49D5DA3C
Copy CRC 49D5DA3C
Accurately ripped (confidence 2) [C6756DFC]
Copy OK

Track 12

Filename C:\Users\Devon\Documents\Downloads\Regina Spektor\Songs\(12) Regina Spektor - Ne Me Quitte Pas.wav

Peak level 98.8 %
Track quality 100.0 %
Test CRC 51B85E3B
Copy CRC 51B85E3B
Track not present in AccurateRip database
Copy OK


11 track(s) accurately ripped
1 track(s) not present in the AccurateRip database

Some tracks could not be verified as accurate

No errors occurred



related torrents

Torrent name

health leech seeds Size

Regina Spektor Songs

4 19 54.01 MB 0
 


comments (0)

Main Menu