Action

[heavens above biz] Love The Beast 2009 DVDRiP XViD SB0

  • Download 5x Faster
  • Download torrent
  • Direct Download
  • Rate this torrent +  |  -
[heavens above biz] Love The Beast 2009 DVDRiP XViD SB0

Anonymous and Free Direct Download 300GB+


Torrent info

Name:[heavens above biz] Love The Beast 2009 DVDRiP XViD SB0

Total Size: 699.78 MB

Magnet: Magnet Link

Seeds: 0

Leechers: 0

Stream: Watch Online @ Movie4u

Last Updated: 2015-08-18 16:40:12 (Update Now)

Torrent added: 2009-08-22 21:30:15



VPN For Torrents

Torrent Files List


Love The Beast DVDRiP XViD SB0..nfo (Size: 699.78 MB) (Files: 3)

 Love The Beast DVDRiP XViD SB0..nfo

5.39 KB

 Love The Beast DVDRiP XViD SB0.avi

699.78 MB

 New Rich Text Document.rtf

0.20 KB
 

tracker

leech seeds
 

Torrent description

Get this and other great latest movies, apps, games, music albums, sport, xxx, tv shows and much much more at high speeds

http://www.heavens-above.biz

come visit us relaxed rules, fun n very friendly community n help
when you need it this place is highly recomended,
you wont be disappointed thats a fact

*****************************************************************************
Love The Beast DVDRiP XViD SB0
*******************************************************************************

-------------------------------------------------------------------------------
General Information
-------------------------------------------------------------------------------
Type.................: Movie



Movie Information....: http://www.imdb.com/title/tt1284028/

-------------------------------------------------------------------------------
Post Information
-------------------------------------------------------------------------------
Posted by............: SB0

-------------------------------------------------------------------------------
Release Notes
-------------------------------------------------------------------------------
General
Complete name : Love The Beast DVDRiP XViD SB0.avi
Format : AVI
Format/Info : Audio Video Interleave
File size : 700 MiB
Duration : 1h 28mn
Overall bit rate : 1 107 Kbps
Writing application : VirtualDubMod 1.5.4.1 (build 2178/release)
Writing library : VirtualDubMod build 2178/release

Video
Format : MPEG-4 Visual
Format profile : Streaming [email protected]
Format settings, BVOP : Yes
Format settings, QPel : No
Format settings, GMC : No warppoints
Format settings, Matrix : Custom
Codec ID : XVID
Codec ID/Hint : XviD
Duration : 1h 28mn
Bit rate : 995 Kbps
Width : 544 pixels
Height : 304 pixels
Display aspect ratio : 16/9
Frame rate : 25.000 fps
Resolution : 24 bits
Colorimetry : 4:2:0
Scan type : Progressive
Bits/(Pixel*Frame) : 0.241
Stream size : 629 MiB (90%)
Writing library : XviD 1.2.1 (UTC 2008-12-04)

Audio
Format : MPEG Audio
Format version : Version 1
Format profile : Layer 3
Codec ID : 55
Codec ID/Hint : MP3
Duration : 1h 28mn
Bit rate mode : Variable
Bit rate : 100 Kbps
Minimum bit rate : 112 Kbps
Channel(s) : 2 channels
Sampling rate : 44.1 KHz
Resolution : 16 bits
Stream size : 63.3 MiB (9%)
Alignment : Aligned on interleaves
Interleave, duration : 26 ms (0.65 video frame)
Interleave, preload duration : 191 ms
Writing library : LAME3.98r
Encoding settings : ABR

What if you were a Hollywood movie star with an obsession for cars and racing?
You would probably read every script with even the tiniest link to the subject
matter, in the hope that you could tell a great car story of the likes of "Grand
Prix", "Le Mans" or "Mad Max". Then one day you happened to open your garage
door and sitting there, right in front of you, was the film you had been
searching for. This is what happened to Eric Bana and this time around, the co-
star is his very own Ford GT Falcon Coupe- THE BEAST. Eric realized the story
was in fact, about him, his first car, a lifetime of ownership and a lifetime of
friendship. He set about documenting his own 25 year long love story. A simple
tale of one man's ongoing relationship with his very first car. After years of
precious restoration, Eric and his 3 closest friends, decided to enter the car
into one of the most grueling and dangerous motor races that exists: The Targa
Tasmania Rally. This would be a personal Everest for both man and machine,
until...on day 4 of the race, tragedy strikes. The man who was hell bent on
trying to convey how much he and those around him loved "THE BEAST", had just
destroyed it. Eric has now unwillingly cast himself in his own real life drama.
We follow him from inside the race car to the surreal world of the red carpet.
This compelling true story follows Eric's progression as a car lover, and as a
person conflicted by what he has done. The personal and social pressures mount
up in the face of re building a car that means so much to him. Along the way
Eric seeks guidance and wisdom from not only the inner sanctum of his 3 life
long friends but also Jay Leno, Jeremy Clarkson, and Dr Phil

screenshots
[heavens above biz] Love The Beast 2009 DVDRiP XViD SB0 preview 0

related torrents

Torrent name

health leech seeds Size
 


comments (0)

Main Menu