Action

[G A] American History X DVDRip uncut german xvid

  • Download 5x Faster
  • Download torrent
  • Direct Download
  • Rate this torrent +  |  -
[G A] American History X DVDRip uncut german xvid

Free and Direct Download with Usenet.nl 300GB+ free


Torrent info

Name:[G A] American History X DVDRip uncut german xvid

Total Size: 657.17 MB

Magnet: Magnet Link

Seeds: 0

Leechers: 3

Stream: Watch Online @ Movie4u

Last Updated: 0000-00-00 00:00:00 (Update Now)

Torrent added: 2009-08-22 21:26:53





Torrent Files List


American History X uncut (DVD Rip).avi (Size: 657.17 MB) (Files: 1)

 American History X uncut (DVD Rip).avi

657.17 MB
 

Announce URL: http://tracker.publicbt.com/announce

Torrent description

Deutscher Titel: American History X
Originaltitel: American History X
Produktionsland: USA
Erscheinungsjahr: 1998
Länge: 114 Minuten
Originalsprache: Englisch
Altersfreigabe: FSK 16
Stab
Regie: Tony Kaye
Drehbuch: David McKenna
Produktion: John Morrissey, Michael De Luca
Musik: Anne Dudley
Kamera: Tony Kaye
Schnitt: Gerald B. Greenberg, Alan Heim
Besetzung

* Beverly D'Angelo: Doris Vinyard
* Edward Norton: Derek Vinyard
* Jennifer Lien: Davina Vinyard
* Edward Furlong: Danny Vinyard
* Avery Brooks: Dr. Dr. Bob Sweeney
* Elliott Gould: Murray
* Stacy Keach: Cameron Alexander
* Ethan Suplee: Seth Ryan
* Fairuza Balk: Stacey
* Guy Torry: Lamont

Format : AVI
Format/Info : Audio Video Interleave
Dateigre : 657 MiB
Duration : 1h 54min
Gesamte Bitrate : 805 Kbps
Verwendetes Programm : Lavf51.7.0

Video
Format : MPEG-4 Visual
Format profile : [email protected]
Format settings, BVOP : Nein
Format settings, QPel : Nein
Format settings, GMC : No warppoints
Format settings, Matrix : Default
Codec ID : DIVX
Codec ID/Info : Project Mayo
Codec ID/Hint : DivX 4
Duration : 1h 54min
Bitrate : 665 Kbps
Breite : 512 Pixel
Höhe : 336 Pixel
Bildseitenverhältnis : 1.524
Bildwiederholungsrate : 25.000 FPS
Auflösung : 8 bits
Colorimetry : 4:2:0
Scan type : Progressive
Bits/(Pixel*Frame) : 0.155
Stream size : 543 MiB (83)
verwendete Encoder-Bibliothek : Lavc51.28.0

Audio
Format : MPEG Audio
Format version : Version 1
Format profile : Layer 3
Codec ID : 55
Codec ID/Hint : MP3
Duration : 1h 54min
Bitraten-Modus : Constant
Bitrate : 128 Kbps
Kanäle : 2 Kanäle
Samplingrate : 44.1 KHz
Auflösung : 16 bits
Stream size : 105 MiB (16)
Alignment : Aligned on interleaves
Interleave, duration : 26 ms (0.65 video frame)
Interleave, preload duration : 496 ms
verwendete Encoder-Bibliothek : LAME3.96

Derek Vinyard, ein stark in der Szene engagierter Neonazi, stellt eines nachts zwei bewaffnete Afroamerikaner als sie sein Auto vor seinem Haus stehlen wollen. Er erschießt einen davon und tötet den anderen durch Randsteinbeißen. Er erhält dafür eine dreijährige Haftstrafe wegen Totschlags und avanciert dadurch zum Helden sowohl in der lokalen Neonaziszene als auch seines jüngeren Bruders Danny. Danny nimmt allmählich die rechtsextreme Haltung seines Bruders an und als er einen Aufsatz mit dem Titel My Mein Kampf abgibt, droht ihm, von der Schule geworfen zu werden. Sein schwarzer Lehrer Sweeney setzt sich für ihn ein und stellt eine Bedingung: Er muss einen Aufsatz über seinen Bruder schreiben wie dieser in die Neonaziszene abgerutscht ist und was schließlich aus seinem Leben geworden ist.

Nachdem Danny mit seiner Familie Derek aus dem Gefängnis abholt, bemerkt er bald einige Veränderungen an ihm. Er trägt nun keine Glatze mehr und zeigt auch sonst nicht mehr sein übliches Verhalten, welches Danny von ihm gewohnt war es wird langsam klar, dass Derek sich von der Neonaziszene und ihrer Ideologie abgewandt hat. Derek sieht mit Sorge, dass Danny zu einem Rechtsrock-Konzert des Neonazi-Führers Cameron Alexander geht. Er geht selber dorthin um ihn dort herauszuholen. Dort trifft er auf Alexander, seinen damaligen Mentor. Dieser will ihn überreden, wieder einzusteigen, doch Derek verliert die Nerven und greift ihn an. Sein Bruder reagiert wütend, aber Derek erklärt ihm die Gründe, warum er nicht mehr Teil der Szene ist. Durch Rückblenden erfährt der Zuschauer mehr über die Vergangenheit der Vinyards:

* Der Vater zeigte eine rassistische Grundhaltung. Als Derek vom Unterricht bei Dr. Sweeney erzählt und berichtet, dass sie dort Native Son einen Roman von Richard Wright lesen, meint dieser: Tauschen wir jetzt alle guten Bücher gegen schwarze Bücher?
* Der Tod des Vaters bei einem Feuerwehreinsatz beeinflusst Derek merklich. Der Vater hatte zuvor der Familie gegenüber die Befürchtung geäußert, dass die ihm neu zugewiesenen Kollegen ein Sicherheitsproblem darstellen könnten. Die beiden Schwarzen wären angeblich weniger qualifiziert gewesen als weiße Mitbewerber um die Arbeitsstelle und nur aufgrund ihrer Hautfarbe eingestellt worden.
* Cameron vermag Derek nachhaltig zu beeinflussen. Erst in Folge seines Haftaufenthalts durchschaut Derek, dass es Cameron nicht um eine bestimmte Haltung, sondern um die eigene Person ging.
* Der Gefängnisaufenthalt prägt Derek nachhaltig. Zunächst findet er Anschluss an eine Neonaziclique, doch Derek sieht mit Abscheu, dass weiße Rassisten mit Chicanos[1] Handel treiben, um an Drogen zu gelangen, welche sie an weiße Mitgefangene verkaufen. Als er sich von der Clique abwendet, wird er von ihr überfallen und vergewaltigt. Von seinem ehemaligen Lehrer Mr. Sweenie bekommt er sowohl Hilfe als auch Literatur. Auch spielt ein schwarzer Mitgefangener eine nicht zu unterschätzende Rolle: Die beiden arbeiten gemeinsam in der Wäscherei der Anstalt. Erst ignoriert Derek ihn, doch später entwickelt sich eine Freundschaft, da er nicht Dereks Vorstellungen eines typischen Schwarzen entspricht. Diesem Mitgefangenen hat er es offensichtlich auch zu verdanken, dass er das Gefängnis lebend verlassen kann, denn sein einziger Schutz vor den Schwarzen im Gefängnis war seine alte Clique.

Nun versucht Derek endgültig, sich und seinen Bruder aus der Neonazibewegung zu lösen, was sich jedoch als äußerst schwierig erweist. Außerdem wollen sich die Afroamerikaner für den Mord an ihren Freunden rächen. Dereks Vorhaben scheint Erfolg zu zeigen. Dann wird Danny jedoch von einem schwarzen Mitschüler auf der Schultoilette erschossen.

related torrents

Torrent name

health leech seeds Size
 

comments (0)

Main Menu