Action

ZULU [email protected] H 264 RIP[ENG]

  • Download 5x Faster
  • Download torrent
  • Direct Download
  • Rate this torrent +  |  -

Torrent info

Name:ZULU [email protected] H 264 RIP[ENG]

Total Size: 898.45 MB

Magnet: Magnet Link

Seeds: 8

Leechers: 2

Stream: Watch Online @ Movie4u

Last Updated: 2010-11-08 20:35:26 (Update Now)

Torrent added: 2009-08-22 21:11:00





Torrent Files List


z1.mp4 (Size: 898.45 MB) (Files: 3)

 z1.mp4

898.41 MB

 Torrent downloaded from Demonoid.com.txt

0.05 KB

 Noname.jpg

38.27 KB
 

Announce URL: http://inferno.demonoid.com:3413/announce

Torrent description

Zulu is one of the great movies, an epic adventure of courage in the face of incredible odds. Based on a true story it tells the amazing tale of 100 British soldiers who stood fast against an overwhelming force of 4,000 of the Zulu nations mightiest warriors in the defence of Rorke's Drift in 1879.
Superbly photographed in Technirama, few other movies have grippingly captured the tension and terror of combat as wave upon wave of warriors is unleashed on the tiny garrison. Set amongst stunning South African scenery, Zulu is a landmark action film and a fitting tribute to some of the most significant acts of heroism in the history of warfare.
Michael Caine's role as the arrogant but courageous Lt. Bromhead brought him international fame, and there are powerful performances from other great British actors including Stanley Baker and Jack Hawkins.

Format : MPEG-4
Format profile : Base Media / Version 2
Codec ID : mp42
File size : 898 MiB
Duration : 2h 12mn
Overall bit rate : 946 Kbps
Encoded date : UTC 2009-05-20 15:50:41
Tagged date : UTC 2009-05-20 20:52:15
Writing application : HandBrake 0.9.3 2008112300

Video
Format : AVC
Format/Info : Advanced Video Codec
Format profile : [email protected]
Format settings, CABAC : Yes
Format settings, ReFrames : 3 frames
Codec ID : avc1
Codec ID/Info : Advanced Video Coding
Duration : 2h 12mn
Bit rate mode : Variable
Bit rate : 784 Kbps
Width : 718 pixels
Height : 432 pixels
Display aspect ratio : 2.35
Frame rate mode : Variable
Frame rate : 25.000 fps
Minimum frame rate : 12.500 fps
Maximum frame rate : 25.000 fps
Resolution : 24 bits
Colorimetry : 4:2:0
Scan type : Progressive
Bits/(Pixel*Frame) : 0.101
Stream size : 743 MiB (83%)


Audio
Format : AAC
Format/Info : Advanced Audio Codec
Format version : Version 4
Format profile : LC
Format settings, SBR : No
Codec ID : 40
Duration : 2h 12mn
Bit rate mode : Variable
Bit rate : 160 Kbps
Maximum bit rate : 225 Kbps
Channel(s) : 2 channels
Channel positions : L R
Sampling rate : 48.0 KHz
Resolution : 16 bits
Stream size : 152 MiB (17%)
Language : English
Encoded date : UTC 2009-05-20 15:50:41
Tagged date : UTC 2009-05-20 20:52:06

related torrents

Torrent name

health leech seeds Size
 

comments (0)

Main Menu