Action

Year of the Comet 1992 English

  • Download 5x Faster
  • Download torrent
  • Direct Download
  • Rate this torrent +  |  -
Year of the Comet 1992 English

Anonymous and Free Direct Download


Torrent info

Name:Year of the Comet 1992 English

Total Size: 1.03 GB

Magnet: Magnet Link

Seeds: 0

Leechers: 0

Stream: Watch Online @ Movie4u

Last Updated: 2012-12-06 21:48:44 (Update Now)

Torrent added: 2009-08-22 21:07:58



VPN For Torrents

Torrent Files List


YearOfTheComet-1992-ENG.avi (Size: 1.03 GB) (Files: 1)

 YearOfTheComet-1992-ENG.avi

1.03 GB
 

Announce URL:

Torrent description

Year of the Comet, 1992. NOT AVAILABLE ON DVD (in the U.S. anyway)

Love is never easy…but in this action packed comedy from Peter Yates, it’s a dangerous propostion. Maggie Harwood (Penelope Ann Miller) is a woman possessed of charm, breeding and smashing good looks. In the hopes of making a mark in her father’s world of high-priced wines and big-time sales, Maggie accepts a simple job of cataloguing the cellar of a Scottish Castle. There, she uncovers the rarest wine in history: a Lafitte from 1811 – called “The Year of the Comet” for its extraordinary vintage. But Maggie isn’t the only player in what turns out to be a dangerous game. An international buyer sends his emissary, Tim Daly to collect the million dollar bottle. When he arrives, he’s just in time to rescue Maggie from evil Philippe (played by Louis Jourdan), who will stop at nothing to keep the treasure in his nefarious hands.

Pretty good quality for a VHS rip.

For more info see: http://www.imdb.com/title/tt0105871/

PLEASE KEEP SEEDING.


Format : AVI
Format/Info : Audio Video Interleave
File size : 1.03 GiB
Duration : 1h 30mn
Overall bit rate : 1 641 Kbps

Video
Format : MPEG-4 Visual
Format profile : [email protected]
Format settings, BVOP : No
Format settings, QPel : No
Format settings, GMC : No warppoints
Format settings, Matrix : Default
Codec ID : XVID
Codec ID/Hint : XviD
Duration : 1h 30mn
Bit rate : 1 500 Kbps
Width : 640 pixels
Height : 480 pixels
Display aspect ratio : 4/3
Frame rate : 29.970 fps
Original frame rate : 29.969 fps
Resolution : 24 bits
Colorimetry : 4:2:0
Scan type : Progressive
Bits/(Pixel*Frame) : 0.163
Stream size : 968 MiB (91%)
Writing library : Magic0432

Audio
Format : MPEG Audio
Format version : Version 1
Format profile : Layer 3
Codec ID : 55
Codec ID/Hint : MP3
Duration : 1h 30mn
Bit rate mode : Constant
Bit rate : 128 Kbps
Channel(s) : 2 channels
Sampling rate : 44.1 KHz
Resolution : 16 bits
Stream size : 82.6 MiB (8%)
Alignment : Aligned on interleaves
Interleave, duration : 26 ms (0.78 video frame)

related torrents

Torrent name

health leech seeds Size
 


comments (0)

Main Menu