Action

X Men Origins Wolverine 2009 DVDRIP XviD ZEKTORM

  • Download 5x Faster
  • Download torrent
  • Direct Download
  • Rate this torrent +  |  -
X Men Origins Wolverine 2009 DVDRIP XviD ZEKTORM

Anonymous and Free Direct Download 300GB+


Torrent info

Name:X Men Origins Wolverine 2009 DVDRIP XviD ZEKTORM

Total Size: 29.01 KB

Magnet: Magnet Link

Seeds: 0

Leechers: 0

Stream: Watch Online @ Movie4u

Last Updated: 0000-00-00 00:00:00 (Update Now)

Torrent added: 2009-08-22 20:59:13



VPN For Torrents

Torrent Files List


X-Men.Origins.Wolverine.2009.DVDRIP.XviD-ZEKTORM.torrent (Size: 29.01 KB) (Files: 1)

 X-Men.Origins.Wolverine.2009.DVDRIP.XviD-ZEKTORM.torrent

29.01 KB
 

Announce URL: http://inferno.demonoid.com:3418/announce

Torrent description

Title : X-Men Origins: Wolverine
Year : 2009
Genre : Action | Fantasy | Sci-Fi | Thriller
iMDB URL : http://www.imdb.com/title/tt0458525/
Awards : 6 nominations

Complete name : XMOW-ZEKTORM.avi
Format : AVI
File size : 701 MiB
Duration : 1h 47mn
Overall bit rate : 913 Kbps
Subtitles : English, Spanish, Portuguese (Format: VobSub)
Source : DVD NTSC

Video
Format : MPEG-4 Visual
Format profile : Streaming [email protected]
Codec ID : XVID
Codec ID/Hint : XviD
Duration : 1h 47mn
Bit rate : 791 Kbps
Width : 720 pixels
Height : 320 pixels
Display aspect ratio : 2.25
Frame rate : 23.976 fps
Resolution : 24 bits
Colorimetry : 4:2:0
Scan type : Progressive
Bits/(Pixel*Frame) : 0.143
Stream size : 607 MiB (87%)
Writing library : XviD

Audio
Format : MPEG Audio
Format version : Version 1
Format profile : Layer 3
Codec ID : 55
Codec ID/Hint : MP3
Duration : 1h 47mn
Bit rate mode : Variable
Bit rate : 109 Kbps
Minimum bit rate : 128 Kbps
Channel(s) : 2 channels
Sampling rate : 48.0 KHz
Resolution : 16 bits
Stream size : 84.1 MiB (12%)
Writing library : LAME3.98r
Encoding settings : ABR

alternative download link:

http://thepiratebay.org/torrent/5040065

related torrents

Torrent name

health leech seeds Size
 


comments (0)

Main Menu