Action

X Men Trilogy 2009 R rated Cut Award Winning AVCHD h264 AAC Dolby PLII mp4 +Sample [RipMinion]

  • Download 5x Faster
  • Download torrent
  • Direct Download
  • Rate this torrent +  |  -

Torrent info

Name:X Men Trilogy 2009 R rated Cut Award Winning AVCHD h264 AAC Dolby PLII mp4 +Sample [RipMinion]

Total Size: 46.74 MB

Magnet: Magnet Link

Seeds: 0

Leechers: 0

Stream: Watch Online @ Movie4u

Last Updated: 2015-10-20 16:05:44 (Update Now)

Torrent added: 2009-08-22 20:58:50




Torrent Files List


~Rare Improved-Cut Movies (fanedit.org).URL (Size: 46.74 MB) (Files: 15)

 ~Rare Improved-Cut Movies (fanedit.org).URL

0.08 KB

 ~ RipMinion ~ Rare Torrents (www.1337x.org user_51839).URL

0.08 KB

 ~ RipMinion ~ Rare Torrents (h33t.com 148823).URL

0.07 KB

 X-Men Trilogy (2009 Ed) R-rated DVDrip - text info.nfo

5.84 KB

 X-Men Trilogy (2009 Ed) R-rated DVDrip - SAMPLE.mp4

45.16 MB

 X-Men Trilogy (2009 Ed) (source movie 3) (imdb.org tt0376994).URL

0.06 KB

 X-Men Trilogy (2009 Ed) (source movie 2) (imdb.org tt0290334).URL

0.06 KB

 X-Men Trilogy (2009 Ed) (source movie 1) (imdb.org tt0120903).URL

0.06 KB

 X-Men Trilogy (2009 Ed) (fanedit.org 4964).URL

0.05 KB

 X-Men Trilogy (2009 Ed) (cover).JPG

1.46 MB

 X-Men Trilogy (2009 Ed) (award).JPG

118.69 KB

 trackers

  tracked_by_hexagon.cc.txt

0.02 KB

  tracked_by_h33t_com.txt

0.02 KB

  tracked_by_Demonoid.com.txt

0.05 KB

  tracked_by_1337x_org.txt

0.02 KB
 

tracker

leech seeds
 

Torrent description

.
X-Men Trilogy 2009 R-rated Cut Award-Winning DVDrip DPLII AVCHD h264 AAC .mp4

Think you’ve seen the X-Men movies (1, 2 & 3)? Think again. This X-Men Trilogy 2009 R-Rated Cut condenses the X-Men movies to a single lasting action ride: more violence, more character depth for highly increased tension, removal of repetitious exposition and of the childish humor greatly adds to the narrative to get the best possible movie from the X-Men Trilogy while following the original plots. By expanding the Jean Grey subplot and allowing more character development the audience gets more attached to the X-Men. And by including more violence and re-organizing action sequences a lot more tension is guaranteed.

Details, Ratings, Reviews : http://fanedit.org/4964/#post-4964

| In an effort to conform to 'fair-use', this torrent contains only the
| sample clip with the *FULL* 4h20m Movie torrent freely available at
| http://h33t.com/ [RipMinion] or http://1337x.org/torrent_25094
| Simply click and go! There is No bs you need to do or deal with.

Details, Ratings, Reviews : http://fanedit.org/4964/#post-4964
Viewer Praise and Comments : http://fanedit.org/4964/#comments
Picture of Cover : X Men Trilogy 2009 R rated Cut Award Winning AVCHD h264 AAC Dolby PLII mp4 +Sample [RipMinion] preview 0
Picture of Award : X Men Trilogy 2009 R rated Cut Award Winning AVCHD h264 AAC Dolby PLII mp4 +Sample [RipMinion] preview 1
Source material 1 : http://www.imdb.com/title/tt0120903/
Source material 2 : http://www.imdb.com/title/tt0290334/
Source material 3 : http://www.imdb.com/title/tt0376994/
Azureus/Vuze Magnet link : magnet:?xt=urn:btih:PIDOMZ55QEVSPOK3B3Q3BIZMN7REEPCF
Rip Quality (video & audio) : Virtually indistinguishable from 8GB PAL source, surpassing their 6GB NTSC DVD
DVD9 8GB PAL original source : http://fanedit.info/ (gently caressed into 8GB NTSC 480p)
More rare improved-cut movies : http://fanedit.org/ then http://fanedit.info/
~ RipMinion ~ Rare Torrents : http://h33t.com/userdetails.php?id=148823
~ RipMinion ~ Rare Torrents : http://1337x.org/user_51839


Encode 'inspired by secretmyth & newartriot' for an Optimal blend of Compression, Quality, and AVCHD compliancy (BluRay/PS3/XBOX-ready).


General
Complete name : X-Men Trilogy 2009 R-rated Cut Award-Winning DVDrip DPLII AVCHD h264 AAC NOsubs .mp4
Format : MPEG-4
Format profile : Base Media
Codec ID : isom
File size : 1.96 GiB
Duration : 4h 22mn
Overall bit rate : 1 068 Kbps

Video
AVCHD Compliant : BluRay/PS3/XBOX ready; no re-encode!
Format : AVC (h264)
Format/Info : Advanced Video Codec
Format profile : [email protected]
Format settings, CABAC : Yes
Format settings, ReFrames : 3 frames
Codec ID : avc1
Codec ID/Info : Advanced Video Coding
Bit rate mode : Variable
Bit rate : 992 Kbps (2-pass)
Maximum bit rate : 6 984 Kbps
Width : 720 pixels
Height : 480 pixels (480p)
Display aspect ratio : 16/9
Frame rate mode : Constant
Frame rate : 25.000 fps
Standard : NTSC (480p)
Resolution : 24 bits
Colorimetry : 4:2:0
Scan type : Progressive
Bits/(Pixel*Frame) : 0.115
Stream size : 1.82 GiB (93%)
Filtering : Decomb, D.A.Graft v5.2.3 (PAL custom options)
Writing library : x264 core 67 r1173M f6d3166
Encoding settings : cabac=1 / ref=3 / deblock=1:-1:0 / analyse=0x3:0x133 / me=umh / subme=9 / psy_rd=1.0:0.2 / mixed_ref=1 / me_range=64 / chroma_me=1 / trellis=2 / 8x8dct=1 / cqm=0 / deadzone=21,11 / chroma_qp_offset=-3 / threads=3 / nr=0 / decimate=1 / mbaff=0 / bframes=3 / b_pyramid=1 / b_adapt=2 / b_bias=0 / direct=3 / wpredb=1 / keyint=250 / keyint_min=25 / scenecut=40 / rc=2pass / bitrate=992 / ratetol=1.0 / qcomp=0.60 / qpmin=10 / qpmax=51 / qpstep=4 / cplxblur=20.0 / qblur=0.5 / vbv_maxrate=9000 / vbv_bufsize=9000 / ip_ratio=1.40 / pb_ratio=1.30 / aq=1:1.00


Audio
Format : AAC, Nero AAC Encoder v1.3.3.0
Format/Info : Advanced Audio Codec
Format version : Version 4
Format profile : LC (AAC-HE v1 extension)
Format settings, SBR : Yes
Format settings, PS : No
Codec ID : 40
Bit rate mode : Variable
Bit rate : 74.5 Kbps (-he -q 0.25 ~transparent)
Maximum bit rate : 92.7 Kbps
Channel(s) : 2 channels (Dolby PLII Surround Sound)
Channel positions : L R
Sampling rate : 48.0 KHz
Resolution : 16 bits
Stream size : 139 MiB (7%)
Language : English
Subtitles : N/A


Rip Quality (video & audio) : Virtually indistinguishable from 8GB PAL source, surpassing their 6GB NTSC DVD
Encode process details / FAQ : http://ripminion.pastebay.com/
More rare improved-cut movies : http://fanedit.org/ then http://fanedit.info/
~ RipMinion ~ Rare Torrents : http://h33t.com/userdetails.php?id=148823
~ RipMinion ~ Rare Torrents : http://1337x.org/user_51839


Playback issues? Here's the easy fix: http://www.videolan.org/vlc/

For fast & easy Convert-to-AVCHD, Burn, and Play on BluRay/PS3/XBOX from a variety of disc types (DVD-R, DVD+R_DL, BD-R, etc.), I recommend multiAVCHD freeware {link follows}. It can auto-generate a slick customizable 'iTunes-style' slide menu for multiple movies and burn all to a single disc! Or, if desired, it can span across several discs. 100% AVCHD Compliant Video, such as this, is quickly made ready (Non-compliant video is automatically re-encoded thus reducing quality, wasting time, and bloating file size):

http://www.videohelp.com/tools/multiAVCHD
http://sourceforge.net/projects/avisynth2/files/
http://www.videohelp.com/tools/eac3to
http://www.videohelp.com/tools/ffmpeg
http://ImgBurn.com/

For fast & easy Convert-to-DVD, Burn, and Play on any DVD Player from DVD-R or DVD+R_DL media, I recommend 'ConvertXtoDVD', either buy or search for the Torrent.


Please feel free to post constructive feedback, questions, comments, etc.

I really appreciate you helping seed at any capacity you can spare.

Enjoy the show,
~ RipMinion ~

.

related torrents

Torrent name

health leech seeds Size
 

comments (0)

Main Menu