Action

Written In Blood DIVX 2002 La Vela avi

  • Download 5x Faster
  • Download torrent
  • Direct Download
  • Rate this torrent +  |  -
Written In Blood DIVX 2002 La Vela avi

Free and Direct Download with Usenet.nl 300GB+ free


Torrent info

Name:Written In Blood DIVX 2002 La Vela avi

Total Size: 1.12 GB

Magnet: Magnet Link

Seeds: 0

Leechers: 0

Stream: Watch Online @ Movie4u

Last Updated: 2015-09-12 06:56:51 (Update Now)

Torrent added: 2009-08-22 20:53:13





Torrent Files List


Written_In_Blood-[cdcovers_cc]-front.jpg (Size: 1.12 GB) (Files: 4)

 Written_In_Blood-[cdcovers_cc]-front.jpg

408.08 KB

 Written.In.Blood.DIVX.2002.La.Vela.avi

1.12 GB

 Written in Blood.jpg

29.27 KB

 Media.nfo

2.17 KB
 

tracker

leech seeds
 

Torrent description

Plot:

When the wife of Detective John Traveller and her lover are executed in bed and John takes the blame, his partner and friend, Detective Matthew Ransom, becomes very upset, affecting his marriage that was not working well. The lover of John's wife was the son of Luke Williams, a detective of the same department, and he does not accept the death of his son. After the trial and conviction of John, Matthew separates from his wife Mary Ramson, being sexually arrested by John's daughter Jude. Meanwhile, a serial killer kills the enemies of John, leaving clues in the crime scenes relatives to Sherlock Holmes tales and Matthew suspects of Jude.


General


Complete name : Written.In.Blood.DIVX.2002.La.Vela.avi
Imdb : http://www.imdb.com/title/tt0316904/
Language : English
Subtitles : N/A
Format : AVI
Format/Info : Audio Video Interleave
Format profile : OpenDML
File size : 1.12 GiB
Duration : 4h 1mn
Overall bit rate : 665 Kbps
Writing application : Lavf51.12.1

Video
Format : MPEG-4 Visual
Format profile : [email protected]
Format settings, BVOP : No
Format settings, QPel : No
Format settings, GMC : No warppoints
Format settings, Matrix : Default
Codec ID : DX50
Codec ID/Hint : DivX 5
Duration : 4h 1mn
Bit rate : 562 Kbps
Width : 720 pixels
Height : 576 pixels
Display aspect ratio : 5/4
Frame rate : 25.000 fps
Standard : PAL
Resolution : 24 bits
Colorimetry : 4:2:0
Scan type : Progressive
Bits/(Pixel*Frame) : 0.054
Stream size : 972 MiB (85%)
Writing library : Lavc51.40.4

Audio
Format : MPEG Audio
Format version : Version 1
Format profile : Layer 3
Codec ID : 55
Codec ID/Hint : MP3
Duration : 1h 30mn
Bit rate mode : Constant
Bit rate : 256 Kbps
Channel(s) : 2 channels
Sampling rate : 48.0 KHz
Resolution : 16 bits
Stream size : 166 MiB (14%)
Alignment : Aligned on interleaves
Interleave, duration : 24 ms (0.60 video frame)
Interleave, preload duration : 24 ms

related torrents

Torrent name

health leech seeds Size

Written In Blood

0 1 41.36 MB 0
 

comments (0)

Main Menu