Movies

Hiroshima The Revenge Of Pearl Harbor dolby 5 1 Whitevegeta

  • Download 5x Faster
  • Download torrent
  • Direct Download
  • Rate this torrent +  |  -

Torrent info

Name:Hiroshima The Revenge Of Pearl Harbor dolby 5 1 Whitevegeta

Total Size: 2.00 GB

Magnet: Magnet Link

Seeds: 0

Leechers: 0

Stream: Watch Online @ Movie4u

Last Updated: 2010-12-28 18:02:47 (Update Now)

Torrent added: 2009-04-19 13:20:01



VPN For Torrents

Torrent Files List


ampentertainment.org.url (Size: 0.23 KB) (Files: 2)

 ampentertainment.org.url

0.12 KB

 READ FIRST!!!!!!!.txt

0.11 KB
 

Announce URL:

Torrent description

eral



Format : AVI

Format/Info : Audio Video Interleave

Format profile : OpenDML

File size : 3.32 GiB

Duration : 2h 57mn

Overall bit rate : 2 674 Kbps

Writing application : VirtualDubMod 1.5.4.1 (build 2178/release)

Writing library : VirtualDubMod build 2178/release



Video

Format : MPEG-4 Visual

Format settings, BVOP : Yes

Format settings, QPel : No

Format settings, GMC : No warppoints

Format settings, Matrix : Default

Codec ID : DX50

Codec ID/Hint : DivX 5

Duration : 2h 57mn

Bit rate : 2 219 Kbps

Width : 720 pixels

Height : 544 pixels

Display aspect ratio : 4/3

Frame rate : 25.000 fps

Resolution : 24 bits

Colorimetry : 4:2:0

Scan type : Progressive

Bits/(Pixel*Frame) : 0.227

Stream size : 2.75 GiB (83%)

Writing library : DivX 2816



Audio

Format : AC-3

Format/Info : Audio Coding 3

Codec ID : 2000

Duration : 2h 57mn

Bit rate mode : Constant

Bit rate : 448 Kbps

Channel(s) : 6 channels

Channel positions : Front: L C R, Surround: L R, LFE

Sampling rate : 48.0 KHz

Stream size : 569 MiB (17%)

Alignment : Split accross interleaves

Interleave, duration : 80 ms (2.00 video frames)

Interleave, preload duration : 500 ms

Language : English