Action

Who Dares Wins (1982) DVDRip (AC 3 Audio)

  • Download 5x Faster
  • Download torrent
  • Direct Download
  • Rate this torrent +  |  -
Who Dares Wins (1982) DVDRip (AC 3 Audio)

Anonymous and Free Direct Download 300GB+


Torrent info

Name:Who Dares Wins (1982) DVDRip (AC 3 Audio)

Total Size: 802.12 MB

Magnet: Magnet Link

Seeds: 0

Leechers: 0

Stream: Watch Online @ Movie4u

Last Updated: 2017-04-30 10:04:48 (Update Now)

Torrent added: 2009-08-22 20:49:12



VPN For Torrents

Torrent Files List


Who Dares Wins [1982] - akhiugo.avi (Size: 802.12 MB) (Files: 1)

 Who Dares Wins [1982] - akhiugo.avi

802.12 MB
 

tracker

leech seeds
 

Torrent description

A trooper with the British Special Air Service (SAS) infiltrates a radical political group who are planning a terrorist operation against American dignitaries. A glamourized look at the methods and tactics of the famed British anti-terrorist squad. The SAS are a elite army unit which as well as its anti terrorist role also performs covert and overt training of friendly countries armed forces and operates enemy lines.

[The film is loosely adapted from James Follet's novel, The Tiptoe Boys. The plot is largely based on the Iranian embassy siege, in which the SAS stormed the building to rescue those being held hostage inside.]

http://www.imdb.com/title/tt0083941/


Complete name : Who Dares Wins [1982] - akhiugo.avi
Format : AVI
Format/Info : Audio Video Interleave
File size : 802 MiB
Duration : 1h 59mn
Overall bit rate : 936 Kbps
Writing application : VirtualDubMod 1.5.4.1 (build 2178/release)
Writing library : VirtualDubMod build 2178/release

Video
Format : MPEG-4 Visual
Format profile : Streaming [email protected]
Format settings, BVOP : Yes
Format settings, QPel : No
Format settings, GMC : No warppoints
Format settings, Matrix : Custom
Codec ID : XVID
Codec ID/Hint : XviD
Duration : 1h 59mn
Bit rate : 706 Kbps
Width : 528 pixels
Height : 400 pixels
Display aspect ratio : 4/3
Frame rate : 25.000 fps
Resolution : 24 bits
Colorimetry : 4:2:0
Scan type : Progressive
Bits/(Pixel*Frame) : 0.134
Stream size : 604 MiB (75%)
Writing library : XviD 1.2.1 (UTC 2008-12-04)

Audio
Format : AC-3
Format/Info : Audio Coding 3
Codec ID : 2000
Duration : 1h 59mn
Bit rate mode : Constant
Bit rate : 224 Kbps
Channel(s) : 2 channels
Channel positions : L R
Sampling rate : 48.0 KHz
Video delay : 11ms
Stream size : 192 MiB (24%)
Alignment : Split accross interleaves
Interleave, duration : 96 ms (2.40 video frames)
Interleave, preload duration : 96 ms


Please help your fellow pirates by seeding after download!

related torrents

Torrent name

health leech seeds Size

WHO DARES WINS

0 0 4.30 GB 0

Who Dares Wins DVDRip org

0 0 902.35 MB 0
 


comments (0)

Main Menu