Action

Watchmen[2009] [Extended]DvDrip LW

  • Download 5x Faster
  • Download torrent
  • Direct Download
  • Rate this torrent +  |  -
Watchmen[2009] [Extended]DvDrip LW

Free and Direct Download with Usenet 300GB+ free


Torrent info

Name:Watchmen[2009] [Extended]DvDrip LW

Total Size: 827.85 MB

Magnet: Magnet Link

Seeds: 3

Leechers: 1

Stream: Watch Online @ Movie4u

Last Updated: 2010-04-28 03:03:16 (Update Now)

Torrent added: 2009-08-22 20:44:28




Torrent Files List


Trackers (Size: 827.85 MB) (Files: 7)

 Trackers

  tracked_by_h33t_com.txt

0.02 KB

  Torrent_downloaded_from_Demonoid.com.txt

0.05 KB

 Movie

  Watchmen[2009]-[Extended]DvDrip-LW.mp4

827.70 MB

 Info

  Movie Info.txt

2.96 KB

  Movie Info.nfo

4.14 KB

 Covers

  Cover.jpg

115.23 KB

  DvD Cover.jpg

32.38 KB
 

Announce URL: http://www.h33t.com:3310/announce

Torrent description

) (`-. (` .-') /` ) (`-.
( OO ). `.( OO ),' ( OO ).
(_/. \_)-.-'),-----. ,--. ,--./ .--. .-'),-----.(_/. \_)-.
`.' ( OO' .-. '| |.-') | | | ( OO' .-. ' `.' /
/Y | | | || | OO )| | | |,/ | | | | /
\_) | || || |`-' || |.'.| |_)_) | || | |
.' \_) | | | (| '---.'| | | | | | .' \_)
/ .'. `' '-' '| | | ,'. | `' '-' '/ .'.
'--' '--' `-----' `------' '--' '--' `-----''--' '--'


ßßßßßßßßßßßßßßßßßßßßßßßßßßßßßßßßßßßßßßßßßßßßßßßßßßßßßßßßßßßßßßßßßßßßßß

Û°°°°°°°°°°°°°°°°°°°°°°°°°°°°°°°°°°°°Û
ÛÛ Watchmen[2009]-[Extended]DvDrip-LW ÛÛ
Û°°°°°°°°°°°°°°°°°°°°°°°°°°°°°°°°°°°°Û

File Name : Watchmen[2009]-[Extended]DvDrip-LW
Type : Movie
Format : MP4
File Size : 827 Mb
Duration : 02:59:50
Language : English
Source : DvD
Subtitles : None
Genre : Action | Drama | Sci-Fi | Thriller
IMDB Link : http://www.imdb.com/title/tt0409459/
IMDB Rating : 8.0/10
IMDB Votes : 72,806 Votes
Release Date : 6, March 2009
ÜÜÜÜÜÜÜÜÜÜÜÜÜÜÜÜÜÜÜÜÜÜÜÜÜÜÜÜÜÜÜÜÜÜÜÜÜÜÜÜÜÜÜÜÜÜÜÜÜÜÜÜÜÜÜÜÜÜÜÜÜÜÜÜÜÜÜÜÜÜ

Û°°°°°°°°°°°°°°°°°°°°°°°°Û
ÛÛ Video Info ÛÛ
Û°°°°°°°°°°°°°°°°°°°°°°°°Û

Format : MPEG-4 Visual
Format profile : [email protected]
Format settings, BVOP : No
Format settings, QPel : No
Format settings, GMC : No warppoints
Format settings, Matrix : Default (H.263)
Codec ID : 20
Duration : 2h 59mn
Bit rate mode : Constant
Bit rate : 512 Kbps
Width : 640 pixels
Height : 256 pixels
Display aspect ratio : 2.500
Frame rate mode : Constant
Frame rate : 30.000 fps
Resolution : 24 bits
Colorimetry : 4:2:0
Scan type : Progressive
Bits/(Pixel*Frame) : 0.104
Stream size : 658 MiB (79%)
Writing library : ZJMedia MPEG
ÜÜÜÜÜÜÜÜÜÜÜÜÜÜÜÜÜÜÜÜÜÜÜÜÜÜÜÜÜÜÜÜÜÜÜÜÜÜÜÜÜÜÜÜÜÜÜÜÜÜÜÜÜÜÜÜÜÜÜÜÜÜÜÜÜÜÜÜÜÜ

Û°°°°°°°°°°°°°°°°°°°°°°°°Û
ÛÛ Sound Info ÛÛ
Û°°°°°°°°°°°°°°°°°°°°°°°°Û

Format : AAC
Format/Info : Advanced Audio Codec
Format version : Version 4
Format profile : LC
Format settings, SBR : No
Codec ID : 40
Duration : 2h 59mn
Bit rate mode : Constant
Bit rate : 128 Kbps
Nominal bit rate : 64.0 Kbps
Channel(s) : 2 channels
Channel positions : L R
Sampling rate : 32.0 KHz
Resolution : 16 bits
Stream size : 165 MiB (20%)
ÜÜÜÜÜÜÜÜÜÜÜÜÜÜÜÜÜÜÜÜÜÜÜÜÜÜÜÜÜÜÜÜÜÜÜÜÜÜÜÜÜÜÜÜÜÜÜÜÜÜÜÜÜÜÜÜÜÜÜÜÜÜÜÜÜÜÜÜÜÜ

Û°°°°°°°°°°°°°°°°°°°°°°°°Û
ÛÛ Plot ÛÛ
Û°°°°°°°°°°°°°°°°°°°°°°°°Û

Zack Snyder directs this adaptation of Alan Moore
and Dave Gibbons's graphic novel set in a parallel
Earth in 1985, where despite the threat of nuclear
war, superheroes are prohibited from using their
powers. But when one of their number is murdered,
the outlaw heroes, including Dr. Manhattan (Billy
Crudup), Silk Spectre (Carla Gugino), Rorschach
(Jackie Earle Haley) and Nite Owl (Patrick Wilson),
unite to defend themselves.

Starring: Jeffrey Dean Morgan, Carla Gugino

Director: Zack Snyder
ÜÜÜÜÜÜÜÜÜÜÜÜÜÜÜÜÜÜÜÜÜÜÜÜÜÜÜÜÜÜÜÜÜÜÜÜÜÜÜÜÜÜÜÜÜÜÜÜÜÜÜÜÜÜÜÜÜÜÜÜÜÜÜÜÜÜÜÜÜÜ

related torrents

Torrent name

health leech seeds Size

Watchmen[2009]DvDrip LW

0 3 1.01 GB 0
 

comments (0)

Main Menu