Action

Watchmen READNFO TS XviD DEViSE

  • Download 5x Faster
  • Download torrent
  • Direct Download
  • Rate this torrent +  |  -
Watchmen READNFO TS XviD DEViSE

Free and Direct Download with Usenet 300GB+ free


Torrent info

Name:Watchmen READNFO TS XviD DEViSE

Total Size: 1.32 GB

Magnet: Magnet Link

Seeds: 0

Leechers: 0

Stream: Watch Online @ Movie4u

Last Updated: 2010-09-30 12:58:32 (Update Now)

Torrent added: 2009-08-22 20:42:51




Torrent Files List


Watchmen.jpg (Size: 1.32 GB) (Files: 5)

 Watchmen.jpg

152.74 KB

 devise-watchmxv.avi

1.32 GB

 Subs

  devise-watchmxv.srt

2.53 KB

 Demonoid.com.txt

0.04 KB

 Torrent downloaded from Demonoid.com.txt

0.05 KB
 

Announce URL: http://inferno.demonoid.com:3417/announce

Torrent description

General

Format : AVI
Format/Info : Audio Video Interleave
File size : 1.32 GiB
Duration : 2h 33mn
Overall bit rate : 1 237 Kbps

Video

Format : MPEG-4 Visual
Format profile : Streaming [email protected]
Format settings, BVOP : Yes
Format settings, QPel : No
Format settings, GMC : No warppoints
Format settings, Matrix : Default (H.263)
Codec ID : DX50
Codec ID/Hint : DivX 5
Duration : 2h 33mn
Bit rate : 1 099 Kbps
Width : 688 pixels
Height : 336 pixels
Display aspect ratio : 2.048
Frame rate : 25.000 fps
Resolution : 24 bits
Colorimetry : 4:2:0
Scan type : Progressive
Bits/(Pixel*Frame) : 0.190
Stream size : 1.18 GiB (89%)
Writing library : XviD 1.2.0.dev47 (UTC 2006-11-01)

Audio

Format : MPEG Audio
Format version : Version 1
Format profile : Layer 3
Codec ID : 55
Codec ID/Hint : MP3
Duration : 2h 33mn
Bit rate mode : Constant
Bit rate : 128 Kbps
Channel(s) : 2 channels
Sampling rate : 48.0 KHz
Resolution : 16 bits
Stream size : 140 MiB (10%)
Alignment : Aligned on interleaves
Interleave, duration : 40 ms (1.00 video frame)
Writing library : LAME3.98r
Encoding settings : -m j -V 4 -q 2 -lowpass 17 -b 128


[size=6][color=red][piratewarez.my1.ru] [H33T][/color][/size]

related torrents

Torrent name

health leech seeds Size
 

comments (0)

Main Menu