Action

Watchmen Directors Cut 2009 DVDRIP XviD DivxMonkey

  • Download 5x Faster
  • Download torrent
  • Direct Download
  • Rate this torrent +  |  -
Watchmen Directors Cut 2009 DVDRIP XviD DivxMonkey

Anonymous and Free Direct Download 300GB+


Torrent info

Name:Watchmen Directors Cut 2009 DVDRIP XviD DivxMonkey

Total Size: 716.48 MB

Magnet: Magnet Link

Seeds: 0

Leechers: 0

Stream: Watch Online @ Movie4u

Last Updated: 2014-06-08 11:27:29 (Update Now)

Torrent added: 2009-08-22 20:41:45



VPN For Torrents

Torrent Files List


READ.hlp (Size: 716.48 MB) (Files: 5)

 READ.hlp

11.27 KB

 Subs

  WDC-ZEKTORM.idx

277.35 KB

  WDC-ZEKTORM.sub

15.10 MB

 Torrent downloaded from Demonoid.com.txt

0.05 KB

 WDC-ZEKTORM.avi

701.10 MB
 

Announce URL:

Torrent description

Title : Watchmen
Year : 2009
Genre : Action | Drama | Sci-Fi | Thriller
iMDB URL : http://www.imdb.com/title/tt0409459/
Awards : 1 nomination

Format : AVI
File size : 701 MiB
Duration : 3h 6mn (Director´s Cut)
Overall bit rate : 526 Kbps
Subtitles : English, Spanish, French (Format: VobSub)
Source : DVD NTSC

Video
Format : MPEG-4 Visual
Format profile : Streaming Video@L1
Codec ID : XVID
Codec ID/Hint : XviD
Duration : 3h 6mn
Bit rate : 409 Kbps
Width : 720 pixels
Height : 304 pixels
Display aspect ratio : 2.35
Frame rate : 23.976 fps
Resolution : 24 bits
Colorimetry : 4:2:0
Scan type : Progressive
Bits/(Pixel*Frame) : 0.078
Stream size : 545 MiB (78%)
Writing library : XviD

Audio
Format : MPEG Audio
Format version : Version 1
Format profile : Layer 3
Codec ID : 55
Codec ID/Hint : MP3
Duration : 3h 6mn
Bit rate mode : Variable
Bit rate : 104 Kbps
Minimum bit rate : 128 Kbps
Channel(s) : 2 channels
Sampling rate : 48.0 KHz
Resolution : 16 bits
Stream size : 139 MiB (20%)
Writing library : LAME3.98r
Encoding settings : ABR

related torrents

Torrent name

health leech seeds Size
 


comments (0)

Main Menu