Comedy

You Dont Mess with the Zohan (2008) 1337x By {Noir}

  • Download 5x Faster
  • Download torrent
  • Direct Download
  • Rate this torrent +  |  -
You Dont Mess with the Zohan (2008) 1337x By {Noir}

Anonymous and Free Direct Download 300GB+


Torrent info

Name:You Dont Mess with the Zohan (2008) 1337x By {Noir}

Total Size: 797.11 MB

Magnet: Magnet Link

Seeds: 1

Leechers: 31

Stream: Watch Online @ Movie4u

Last Updated: 2010-09-22 08:23:57 (Update Now)

Torrent added: 2008-07-20 22:25:49



VPN For Torrents

Torrent Files List


1337x.Org.txt (Size: 797.11 MB) (Files: 3)

 1337x.Org.txt

0.03 KB

 Noir.nfo

4.50 KB

 You Don't Mess with the Zohan (2008) [1337x] By {Noir}.avi

797.11 MB
 

Announce URL: http://genesis.1337x.org:1337/announce

Torrent description

You Dont Mess with the Zohan (2008) 1337x By {Noir} preview 0

Screenshots

You Dont Mess with the Zohan (2008) 1337x By {Noir} preview 1

You Dont Mess with the Zohan (2008) 1337x By {Noir} preview 2

You Dont Mess with the Zohan (2008) 1337x By {Noir} preview 3

You Dont Mess with the Zohan (2008) 1337x By {Noir} preview 4

_____________________________________________________________________________
▓▓▓▓▓▓
▓█████▓ ▓▓▓▓
▓██████▓ ▓▓███▓
▓▓██████▓ ▓████▓▓▓▓▓▓
▓██████▓ ▓██▒█▓▓███▓▓ ▓▓▓▓▓▓▓▓▓▓▓▓▓
▓██▒████▓ ▓██▒█▓██████▓▓███▓███▓███▓▓
▓██▒▒████▓ ▓██▒███▒▒▒▒██▓████████████▓
▓██▒▒▒▒███▓ ▓██▒██▒▒▒▒▒▒███▒▒▒██▒█▒▒▒██▓▓
▓██▒▒██▒▒██▓▓██▒██▒▒█▒▒▒▒███████▒▒▒▒▒▒██▓
▓██▒▒███▒▒██▓██▒██▒█▓█▒▒▒██▒▒▒██▒▒██▒▒▒█▓
▓██▒▒████▒▒████▒██▒█▓█▒▒▒██▒▒▒██▒▒███▒██▓
▓██▒▒█▓███▒▒███▒██▒▒█▒▒▒▒██▒▒▒██▒▒██████▓
▓██▒▒█▓▓███▒▒██▒██▒▒▒▒▒▒▒██▒▒▒██▒▒██▓███▓
▓▓██▒▒█▓ ▓███▒▒█▒██▒▒▒▒▒▒▒███████▒▒██▓▓▓▓▓
▓▓███▒▒█▓ ▓███▒▒▒███▒▒▒▒▒██▓▓▓▓██▒▒██▓
▓████▒▒█▓ ▓███▒▒█████████▓▓ ▓██▒▒██▓
▓████▒▒█▓ ▓███▒█▓██████▓▓▓ ▓██████▓
▓███████▓ ▓▓████▓▓▓▓▓▓▓▓ ▓▓▓▓▓▓▓▓
▓▓▓▓▓▓▓▓▓ ▓▓▓▓▓
_____________________________________________________________________________



*******************************************************************************
You Don\'t Mess with the Zohan (2008)
*******************************************************************************

-------------------------------------------------------------------------------
General Information
-------------------------------------------------------------------------------
Type : Movie
Format : AVI
Format/Info : Audio Video Interleave
File size : 751 MiB
Duration : 1h 11mn
Genre : Action | Comedy
IMDB Link : http://www.imdb.com/title/tt0960144/
Rating : 5.6/10
Video
Format : MPEG-4 Visual
Format profile : Streaming [email protected]
Format settings, BVOP : Yes
Format settings, QPel : No
Format settings, GMC : No warppoints
Format settings, Matrix : Default
Muxing mode : Packet Bitstream
Codec ID : XVID
Codec ID/Hint : XviD
Duration : 1h 41mn
Bit rate : 956 Kbps
Width : 592 pixels
Height : 320 pixels
Display aspect ratio : 1.850
Frame rate : 25.000 fps
Resolution : 8 bits
Colorimetry : 4:2:0
Scan type : Progressive
Bits/(Pixel*Frame) : 0.202
Stream size : 697 MiB (87%)

Audio
Format : MPEG Audio
Format version : Version 1
Format profile : Layer 3
Codec ID : 55
Codec ID/Hint : MP3
Duration : 1h 41mn
Bit rate mode : Constant
Bit rate : 128 Kbps
Minimum bit rate : 128 Kbps
Channel(s) : 2 channels
Sampling rate : 48.0 KHz
Resolution : 16 bits
Stream size : 93.3 MiB (12%)
Alignment : Aligned on interleaves
Interleave, duration : 40 ms (1.00 video frame)
Interleave, preload duration : 504 ms
Writing library : LAME3.97
Encoding settings : CBR
-------------------------------------------------------------------------------
Description
-------------------------------------------------------------------------------
This is the story about a Mossad agent Zohan Dvir, who fakes his death so he
\\can re-emerge in New York City as a hair stylist. He romances his clients
by giving them \"special services\" in the back room. However, he is eventually
recognized, and risks losing his newfound life and career.
-------------------------------------------------------------------------------
Post Information
-------------------------------------------------------------------------------
Posted by............: Noir
Posted on............: 7/20/2008

You Dont Mess with the Zohan (2008) 1337x By {Noir} preview 5

You Dont Mess with the Zohan (2008) 1337x By {Noir} preview 6

related torrents

Torrent name

health leech seeds Size
 


comments (0)

Main Menu