Action

Vertical Limit 2000 BluRay 1080p DTS x264 dxva EuReKA

  • Download 5x Faster
  • Download torrent
  • Direct Download
  • Rate this torrent +  |  -
Vertical Limit 2000 BluRay 1080p DTS x264 dxva EuReKA

Free and Direct Download with Usenet 300GB+ free


Torrent info

Name:Vertical Limit 2000 BluRay 1080p DTS x264 dxva EuReKA

Total Size: 11.74 GB

Magnet: Magnet Link

Seeds: 0

Leechers: 1

Stream: Watch Online @ Movie4u

Last Updated: 0000-00-00 00:00:00 (Update Now)

Torrent added: 2009-08-22 20:25:56




Torrent Files List


Vertical.Limit.2000.BluRay.1080p.DTS.x264.dxva-EuReKA.nfo (Size: 11.74 GB) (Files: 7)

 Vertical.Limit.2000.BluRay.1080p.DTS.x264.dxva-EuReKA.nfo

1.02 KB

 Vertical.Limit.2000.BluRay.1080p.DTS.x264.dxva-EuReKA.mkv

11.62 GB

 mediainfo.txt

3.26 KB

 Sample

  Vertical.Limit.2000.BluRay.1080p.DTS.x264.dxva-EuReKA.[SAMPLE].mkv

109.74 MB

 Pictures

  snapshot_2009.06.21.16_14_27.png

2.65 MB

  snapshot_2009.06.21.16_13_51.png

2.26 MB

  snapshot_2009.06.21.16_12_41.png

2.67 MB
 

Announce URL: http://tracker.publicbt.com/announce

Torrent description


Release Group: EuReKA
Container: MKV
Format: x264
Resolution: 1080p
Source Media: Blu-Ray
Audio Format: DTS
Audio Channels: 5.1
Audio Bitrate: 1536
Subtitles Dutch, English


EuReKA

------



General Info

------------

IMDB Link: http://www.imdb.com/title/tt0190865/

Length: 124 minutes



Technical Specs

---------------

Container...........: Matroska

Video Encoder.......: x264

Video Aspect Ratio..: 1.85:1 (1920x1040)

Audio Codec.........: DTS

Audio Bitrate.......: 1536 kbps

Audio Channels......: 6 channels

Subtitles...........: English, Dutch

Source..............: BluRay

File Size...........: 11.6 GB (AVG bitrate of 13,4 Mbps)

DXVA compliant......: Yes



Enjoy!



General
Complete name : Vertical.Limit.2000.BluRay.1080p.DTS.x264.dxva-EuReKAVertical.Limit.2000.BluRay.1080p.DTS.x264.dxva-EuReKA.mkv
Format : Matroska
File size : 11.6 GiB
Duration : 2h 4mn
Overall bit rate : 13.4 Mbps
Encoded date : UTC 2009-06-19 20:05:22
Writing application : mkvmerge v2.5.1 ('He Wasn't There&#39 built on Feb 22 2009 18:19:47
Writing library : libebml v0.7.7 + libmatroska v0.8.1

Video
ID : 1
Format : AVC
Format/Info : Advanced Video Codec
Format profile : High@L4.1
Format settings, CABAC : Yes
Format settings, ReFrames : 4 frames
Muxing mode : Container profile=Unknown@4.1
Codec ID : V_MPEG4/ISO/AVC
Duration : 2h 4mn
Bit rate : 11.6 Mbps
Width : 1 920 pixels
Height : 1 040 pixels
Display aspect ratio : 16/9
Frame rate : 23.976 fps
Resolution : 24 bits
Colorimetry : 4:2:0
Scan type : Progressive
Bits/(Pixel*Frame) : 0.242
Stream size : 10.0 GiB (86%)
Title : EuReKA's Vertical Limit crf encode@11,9 Mbps
Writing library : x264 core 67 r1162M f7bfcfa
Encoding settings : cabac=1 / ref=4 / deblock=1:-2:-2 / analyse=0x3:0x113 / me=umh / subme=9 / psy_rd=1.0:0.0 / mixed_ref=1 / me_range=32 / chroma_me=1 / trellis=1 / 8x8dct=1 / cqm=0 / deadzone=21,11 / chroma_qp_offset=-2 / threads=6 / nr=0 / decimate=0 / mbaff=0 / bframes=5 / b_pyramid=1 / b_adapt=2 / b_bias=0 / direct=2 / wpredb=1 / keyint=250 / keyint_min=25 / scenecut=40 / rc=crf / crf=21.0 / qcomp=0.70 / qpmin=10 / qpmax=51 / qpstep=4 / vbv_maxrate=50000 / vbv_bufsize=50000 / ip_ratio=1.40 / pb_ratio=1.30 / aq=1:0.80
Language : English

Audio
ID : 2
Format : DTS
Format/Info : Digital Theater Systems
Codec ID : A_DTS
Duration : 2h 4mn
Bit rate mode : Constant
Bit rate : 1 536 Kbps
Channel(s) : 6 channels
Channel positions : Front: L C R, Surround: L R, LFE
Sampling rate : 48.0 KHz
Resolution : 24 bits
Stream size : 1.34 GiB (11%)
Title : DTS 1536 kbps

Text #1
ID : 3
Format : UTF-8
Codec ID : S_TEXT/UTF8
Codec ID/Info : UTF-8 Plain Text
Language : Dutch

Text #2
ID : 4
Format : UTF-8
Codec ID : S_TEXT/UTF8
Codec ID/Info : UTF-8 Plain Text
Language : English

related torrents

Torrent name

health leech seeds Size
 

comments (0)

Main Menu