Action

Vertical Limit 2000 720p BluRay DTS x264 CtrlHD[

  • Download 5x Faster
  • Download torrent
  • Direct Download
  • Rate this torrent +  |  -
Vertical Limit 2000 720p BluRay DTS x264 CtrlHD[

Anonymous and Direct Download 300GB+ free


Torrent info

Name:Vertical Limit 2000 720p BluRay DTS x264 CtrlHD[

Total Size: 6.29 GB

Magnet: Magnet Link

Seeds: 0

Leechers: 0

Stream: Watch Online @ Movie4u

Last Updated: 2011-04-02 17:58:27 (Update Now)

Torrent added: 2009-08-22 20:25:55




Torrent Files List


Vertical.Limit.2000.720p.BluRay.DTS.x264-CtrlHD.sfv (Size: 6.29 GB) (Files: 68)

 Vertical.Limit.2000.720p.BluRay.DTS.x264-CtrlHD.sfv

8.66 KB

 Vertical.Limit.2000.720p.BluRay.DTS.x264-CtrlHD.nfo

3.39 KB

 vertical-dts.part66.rar

68.65 MB

 vertical-dts.part65.rar

98.00 MB

 vertical-dts.part64.rar

98.00 MB

 vertical-dts.part63.rar

98.00 MB

 vertical-dts.part62.rar

98.00 MB

 vertical-dts.part61.rar

98.00 MB

 vertical-dts.part60.rar

98.00 MB

 vertical-dts.part59.rar

98.00 MB

 vertical-dts.part58.rar

98.00 MB

 vertical-dts.part57.rar

98.00 MB

 vertical-dts.part56.rar

98.00 MB

 vertical-dts.part55.rar

98.00 MB

 vertical-dts.part54.rar

98.00 MB

 vertical-dts.part53.rar

98.00 MB

 vertical-dts.part52.rar

98.00 MB

 vertical-dts.part51.rar

98.00 MB

 vertical-dts.part50.rar

98.00 MB

 vertical-dts.part49.rar

98.00 MB

 vertical-dts.part48.rar

98.00 MB

 vertical-dts.part47.rar

98.00 MB

 vertical-dts.part46.rar

98.00 MB

 vertical-dts.part45.rar

98.00 MB

 vertical-dts.part44.rar

98.00 MB

 vertical-dts.part43.rar

98.00 MB

 vertical-dts.part42.rar

98.00 MB

 vertical-dts.part41.rar

98.00 MB

 vertical-dts.part40.rar

98.00 MB

 vertical-dts.part39.rar

98.00 MB

 vertical-dts.part38.rar

98.00 MB

 vertical-dts.part37.rar

98.00 MB

 vertical-dts.part36.rar

98.00 MB

 vertical-dts.part35.rar

98.00 MB

 vertical-dts.part34.rar

98.00 MB

 vertical-dts.part33.rar

98.00 MB

 vertical-dts.part32.rar

98.00 MB

 vertical-dts.part31.rar

98.00 MB

 vertical-dts.part30.rar

98.00 MB

 vertical-dts.part29.rar

98.00 MB

 vertical-dts.part28.rar

98.00 MB

 vertical-dts.part27.rar

98.00 MB

 vertical-dts.part26.rar

98.00 MB

 vertical-dts.part25.rar

98.00 MB

 vertical-dts.part24.rar

98.00 MB

 vertical-dts.part23.rar

98.00 MB

 vertical-dts.part22.rar

98.00 MB

 vertical-dts.part21.rar

98.00 MB

 vertical-dts.part20.rar

98.00 MB

 vertical-dts.part19.rar

98.00 MB

 vertical-dts.part18.rar

98.00 MB

 vertical-dts.part17.rar

98.00 MB

 vertical-dts.part16.rar

98.00 MB

 vertical-dts.part15.rar

98.00 MB

 vertical-dts.part14.rar

98.00 MB

 vertical-dts.part13.rar

98.00 MB

 vertical-dts.part12.rar

98.00 MB

 vertical-dts.part11.rar

98.00 MB

 vertical-dts.part10.rar

98.00 MB

 vertical-dts.part09.rar

98.00 MB

 vertical-dts.part08.rar

98.00 MB

 vertical-dts.part07.rar

98.00 MB

 vertical-dts.part06.rar

98.00 MB

 vertical-dts.part05.rar

98.00 MB

 vertical-dts.part04.rar

98.00 MB

 vertical-dts.part03.rar

98.00 MB

 vertical-dts.part02.rar

98.00 MB

 vertical-dts.part01.rar

98.00 MB
 

Announce URL: http://tracker.publicbt.com/announce

Torrent description

Vertical Limit 2000 720p BluRay DTS x264-CtrlHD

Plot

A climber must rescue his sister on top of K2, one of the world's biggest mountains.

General Information

RUNTIME.......: 02H:04M:27S
SIZE..........: 6,30GB
VIDEO CODEC...: x264, 2pass, L4.1
FRAMERATE.....: 23.976fps
BITRATE.......: 6500 Kbps
RESOLUTION....: 1280x688
AUDIO.........: DTS 5.1 @ 768 Kbps
SUBTITLES.....: --------------
SOURCE........: Vertical Limit 2000 1080p Blu-ray GER H.264 LPCM 5.1
IMDB..........: http://www.imdb.com/title/tt0190865/

ENCODER.......: VANRAY
RELEASE DATE..: 26/10/2008

MediaInfo:

Format : Matroska
File size : 6.31 GiB
Duration : 2h 4mn
Overall bit rate : 7 257 Kbps
Encoded date : UTC 2008-10-07 11:35:12
Writing application : mkvmerge v2.1.0 ('Another Place To Fall') built on Aug 19 2007 13:40:07
Writing library : libebml v0.7.7 + libmatroska v0.8.1

Video
ID : 1
Format : AVC
Format/Info : Advanced Video Codec
Format profile : [email protected]
Format settings, CABAC : Yes
Format settings, ReFrames : 4 frames
Muxing mode : Container [email protected]
Codec ID : V_MPEG4/ISO/AVC
Duration : 2h 4mn
Bit rate : 6 345 Kbps
Nominal bit rate : 6 499 Kbps
Width : 1 280 pixels
Height : 688 pixels
Display aspect ratio : 1.860
Frame rate : 23.976 fps
Resolution : 24 bits
Colorimetry : 4:2:0
Scan type : Progressive
Bits/(Pixel*Frame) : 0.301
Stream size : 5.51 GiB (87%)
Writing library : x264 core 64 r979M 6d4af8d

Language : English

Audio
ID : 2
Format : DTS
Format/Info : Digital Theater Systems
Codec ID : A_DTS
Duration : 2h 4mn
Bit rate mode : Constant
Bit rate : 768 Kbps
Channel(s) : 6 channels
Channel positions : Front: L C R, Surround: L R, LFE
Sampling rate : 48.0 KHz
Resolution : 24 bits
Stream size : 684 MiB (11%)
Title : DTS
Language : English

related torrents

Torrent name

health leech seeds Size
 


comments (0)

Main Menu