Action

Valhall Personal Firearms maz

  • Download 5x Faster
  • Download torrent
  • Direct Download
  • Rate this torrent +  |  -
Valhall Personal Firearms maz

Anonymous and Free Direct Download


Torrent info

Name:Valhall Personal Firearms maz

Total Size: 610.07 MB

Magnet: Magnet Link

Seeds: 0

Leechers: 3

Stream: Watch Online @ Movie4u

Last Updated: 2010-03-25 06:56:50 (Update Now)

Torrent added: 2009-08-22 20:22:09



VPN For Torrents

Torrent Files List


Bonus.1-maz.part1.rar (Size: 610.07 MB) (Files: 46)

 Bonus.1-maz.part1.rar

14.31 MB

 Bonus.1-maz.part2.rar

14.29 MB

 Bonus.2-maz.part1.rar

14.31 MB

 Bonus.2-maz.part2.rar

14.31 MB

 Bonus.2-maz.part3.rar

14.31 MB

 Bonus.2-maz.part4.rar

14.31 MB

 Bonus.2-maz.part5.rar

5.81 MB

 Firearms-maz.nfo

2.51 KB

 Firearms-maz.part01.rar

14.31 MB

 Firearms-maz.part02.rar

14.31 MB

 Firearms-maz.part03.rar

14.31 MB

 Firearms-maz.part04.rar

14.31 MB

 Firearms-maz.part05.rar

14.31 MB

 Firearms-maz.part06.rar

14.31 MB

 Firearms-maz.part07.rar

14.31 MB

 Firearms-maz.part08.rar

14.31 MB

 Firearms-maz.part09.rar

14.31 MB

 Firearms-maz.part10.rar

14.31 MB

 Firearms-maz.part11.rar

14.31 MB

 Firearms-maz.part12.rar

14.31 MB

 Firearms-maz.part13.rar

14.31 MB

 Firearms-maz.part14.rar

14.31 MB

 Firearms-maz.part15.rar

14.31 MB

 Firearms-maz.part16.rar

14.31 MB

 Firearms-maz.part17.rar

14.31 MB

 Firearms-maz.part18.rar

14.31 MB

 Firearms-maz.part19.rar

14.31 MB

 Firearms-maz.part20.rar

14.31 MB

 Firearms-maz.part21.rar

14.31 MB

 Firearms-maz.part22.rar

14.31 MB

 Firearms-maz.part23.rar

14.31 MB

 Firearms-maz.part24.rar

14.31 MB

 Firearms-maz.part25.rar

14.31 MB

 Firearms-maz.part26.rar

14.31 MB

 Firearms-maz.part27.rar

14.31 MB

 Firearms-maz.part28.rar

14.31 MB

 Firearms-maz.part29.rar

14.31 MB

 Firearms-maz.part30.rar

14.31 MB

 Firearms-maz.part31.rar

14.31 MB

 Firearms-maz.part32.rar

14.31 MB

 Firearms-maz.part33.rar

14.31 MB

 Firearms-maz.part34.rar

14.31 MB

 Firearms-maz.part35.rar

14.31 MB

 Firearms-maz.part36.rar

14.31 MB

 Firearms-maz.part37.rar

3.45 MB

 Valhall.Personal.Firearms-maz.sfv

4.11 KB
 

Announce URL: http://tpb.tracker.thepiratebay.org:80/announce

Torrent description

Valhall Personal Firearms maz preview 0

*********************** maz **********************

Content:
Valhalla Personal Firearms Defense - Combat Focus Shooting
Valhalla Personal Firearms Defense - Combat Focus Shooting - Bonus 1
Valhalla Personal Firearms Defense - Combat Focus Shooting - Bonus 2

Quality:10/10

Home page:http://www.valhallashootingclub.com/video.php

Plot:
The Valhalla Shooting Club\'s indoor shooting facility is monitored by
16 digital video cameras that can be arranged to capture all of the
training and activities that go on in the scenario rooms and the static
range. The recordings are utilized for debriefs, as a record of training
and performance and can be burned onto a DVD for our clients to take with
them as souvenirs. Click on the items below to see clips that include
demonstrations, previews and scenes from actual courses.

General
Format : AVI
Format/Info : Audio Video Interleave
File size : 615 MiB
Duration : 1h 11mn
Overal bit rate : 1186 Kbps

Video
Format : MPEG-4 Visual
Format profile : Streaming [email protected]
Format settings, BVOP : Yes
Format settings, QPel : No
Format settings, GMC : 0 warppoint
Format settings, Matrix : Default
Codec ID : DX50
Codec ID/Hint : DivX 5
Duration : 1h 11mn
Bit rate : 1099 Kbps
Width : 512 pixels
Height : 384 pixels
Display aspect ratio : 4/3
Frame rate : 29.970 fps
Resolution : 8 bits
Colorimetry : 4:2:0
Scan type : Progressive
Bits/(Pixel*Frame) : 0.186
Stream size : 485 MiB
Writing library : XviD 1.2.-127(dev)
Writing library/Date : UTC 2006-11-01

Audio
Format : MPEG Audio
Format version : Version 1 / Layer 3
Codec ID : 55
Codec ID/Hint : MP3
Bit rate mode : VBR
Bit rate : 128 Kbps
Channel(s) : 2 channels
Sampling rate : 44.1 KHz
Resolution : 16 bits
Stream size : 32.7 MiB

********************** SHOOOOOT *********************

related torrents

Torrent name

health leech seeds Size
 


comments (0)

Main Menu