Action

V For Vendetta 2005 DVDRip [H 264 MP4 5 1 AAC] ~ Mindbreaker

  • Download 5x Faster
  • Download torrent
  • Direct Download
  • Rate this torrent +  |  -
V For Vendetta 2005 DVDRip [H 264 MP4 5 1 AAC] ~ Mindbreaker

Anonymous and Direct Download 300GB+ free


Torrent info

Name:V For Vendetta 2005 DVDRip [H 264 MP4 5 1 AAC] ~ Mindbreaker

Total Size: 1.96 GB

Magnet: Magnet Link

Seeds: 9

Leechers: 2

Stream: Watch Online @ Movie4u

Last Updated: 2010-11-13 23:12:44 (Update Now)

Torrent added: 2009-08-22 20:20:44




Torrent Files List


V For Vendetta 2005 DVDRip [H.264-MP4-5.1 AAC] ~ Mindbreaker.nfo (Size: 1.96 GB) (Files: 8)

 V For Vendetta 2005 DVDRip [H.264-MP4-5.1 AAC] ~ Mindbreaker.nfo

1.59 KB

 V For Vendetta 2005 DVDRip [H.264-MP4-5.1 AAC] ~ Mindbreaker.mp4

1.96 GB

 Subtitles

  V For Vendetta 2005 DVDRip [H.264-MP4-5.1 AAC] ~ Mindbreaker - Dutch.srt

110.83 KB

 Screenshots

  V For Vendetta - 003.png

565.41 KB

  V For Vendetta - 002.png

444.14 KB

  V For Vendetta - 001.png

528.35 KB

 Covers

  V For Vendetta - Front.jpg

528.73 KB

  V For Vendetta - CD.jpg

193.23 KB
 

Announce URL: http://genesis.1337x.org:1337/announce

Torrent description

imdb : http://www.imdb.com/title/tt0434409/
Tagline: Remember, remember the 5th of November, the gun powder treason and plot. I know of no reason why the gun powder treason should ever be forgot.
Plot: A shadowy freedom fighter known only as "V" uses terrorist tactics to fight against his totalitarian society. Upon rescuing a girl from the secret police, he also finds his best chance at having an ally.
Total Size : 1.96 GB

General
Complete name : V For Vendetta 2005 DVDRip [H.264-MP4-5.1 AAC] - Mindbreaker.mp4
Format : H.264/5.1 AAC/MP4 - Anamorphic
Source : DVD (retail)
File size : 1.96 GiB
Duration : 2h 7mn
Overall bit rate : 2 210 Kbps

Video
ID : 1
Format : AVC
Format/Info : Advanced Video Codec
Format profile : [email protected]
Duration : 2h 7mn
Bit rate : 2 000 Kbps
Width : 1 024 pixels
Height : 428 pixels
Display aspect ratio : 2.35
Frame rate : 25.000 fps
Bits/(Pixel*Frame) : 0.183
Stream size : 1.78 GiB (90%)
Writing library : x264 core 66 r0+1113 cc4f807

Audio
ID : 2
Format : AAC
Format/Info : Advanced Audio Codec
Format profile : LC
Duration : 2h 7mn
Bit rate : 207 Kbps
Channel(s) : 6 channels
Sampling rate : 48.0 KHz
Stream size : 188 MiB (9%)
Language : English

Subtitle
Format : SubRip
Language : Dutch
Source : DVD
Comment : UniCode

V For Vendetta 2005 DVDRip [H 264 MP4 5 1 AAC] ~ Mindbreaker preview 0
V For Vendetta 2005 DVDRip [H 264 MP4 5 1 AAC] ~ Mindbreaker preview 1
V For Vendetta 2005 DVDRip [H 264 MP4 5 1 AAC] ~ Mindbreaker preview 2

related torrents

Torrent name

health leech seeds Size
 


comments (0)

Main Menu