Action

True Lies (1994) (DVDrip OPT MULTISUBS)

  • Download 5x Faster
  • Download torrent
  • Direct Download
  • Rate this torrent +  |  -
True Lies (1994) (DVDrip OPT MULTISUBS)

Download FREE And Anonymously


Torrent info

Name:True Lies (1994) (DVDrip OPT MULTISUBS)

Total Size: 715.94 MB

Magnet: Magnet Link

Seeds: 0

Leechers: 0

Stream: Watch Full Movie @ Movie4u

Last Updated: 0000-00-00 00:00:00 (Update Now)

Torrent added: 2009-08-22 19:51:02



VPN For Torrents

Torrent Files List


True Lies (1994) Arnold Schwarzenegger (DVDrip,OPT.MULTISUBS)_Kuth.avi (Size: 715.94 MB) (Files: 17)

 True Lies (1994) Arnold Schwarzenegger (DVDrip,OPT.MULTISUBS)_Kuth.avi

693.24 MB

 Sample

  Sample-True Lies (1994)_Kuth.avi

10.12 MB

 Optional subtitles

  Turkish.rar

1.03 MB

  Svenska.rar

1.00 MB

  Suomi.rar

928.56 KB

  Portuges.rar

895.78 KB

  Polski.rar

1.01 MB

  Notes on subtitle files and burning of discs.txt

2.08 KB

  Norsk.rar

880.44 KB

  Nederlands.rar

784.95 KB

  Hungarian.rar

1.04 MB

  Greek.rar

1.02 MB

  English.rar

1.06 MB

  Dansk.rar

0.98 MB

  Czech.rar

1.10 MB

  Bulgarian.rar

952.67 KB

 Info about this release.txt

4.56 KB
 

Announce URL:

Torrent description

True Lies (1994)

Optional subtitles in separate idx/sub files:
Bulgarian, Czech, Danish, Dutch, English, Finnish, Greek, Hungarian, Norwegian, Polish, Portugese, Swedish, Turkish

With Arnold Schwarzenegger, Jamie Lee Curtis, Tia Carrere, Bill Paxton and Tom Arnold.

Classic action comedy where Arnold shows that he has both self irony and humour. I had not suspected that until I saw this film.

My new ripping procedure now produces decent quality for such a long film compressed into just 700 MiB. I enclose a sample for ye weak in faith.

Widescreen XviD 2-pass 720x304, really greast stereo AC3.
Burn tested, runs well in both my standalone DivX players.

Format/Info : Audio Video Interleave
File size : 693 MiB
Duration : 2h 15mn
Overal bit rate : 716 Kbps

Video
Format : MPEG-4 Visual
Format profile : Streaming [email protected]
Format settings, BVOP : Yes
Format settings, QPel : No
Format settings, GMC : No warppoints
Format settings, Matrix : Default
Muxing mode : Packet Bitstream
Codec ID : XVID
Codec ID/Hint : XviD
Duration : 2h 15mn
Bit rate : 578 Kbps
Width : 720 pixels
Height : 304 pixels
Display aspect ratio : 2.35
Frame rate : 25.000 fps
Resolution : 8 bits
Colorimetry : 4:2:0
Scan type : Progressive
Bits/(Pixel*Frame) : 0.106
Stream size : 560 MiB
Writing library : XviD 1.2.0.dev47 (UTC 2006-11-01)

Audio
Format : MPEG Audio
Format version : Version 1
Format profile : Layer 3
Codec ID : 55
Codec ID/Hint : MP3
Duration : 2h 15mn
Bit rate mode : Constant
Bit rate : 128 Kbps
Minimum bit rate : 128 Kbps
Channel(s) : 2 channels
Sampling rate : 48.0 KHz
Resolution : 16 bits
Stream size : 124 MiB
Writing library : LAME3.97
Encoding settings : CBR

Source: PAL native 7.3 GiB (note that PAL/NTSC will give no problems for avi
files).

Thanks to Kuthumi!

related torrents

Torrent name

health leech seeds Size
 


comments (0)

Main Menu

 

script data-cfasync="false" src="//d2ghscazvn398x.cloudfront.net/?cshgd=690275">