Action

Traffic 2000 DvDrip marxus

  • Download 5x Faster
  • Download torrent
  • Direct Download
  • Rate this torrent +  |  -
Traffic 2000 DvDrip marxus

Free and Direct Download with Usenet.nl 300GB+ free


Torrent info

Name:Traffic 2000 DvDrip marxus

Total Size: 700.01 MB

Magnet: Magnet Link

Seeds: 44

Leechers: 13

Stream: Watch Online @ Movie4u

Last Updated: 0000-00-00 00:00:00 (Update Now)

Torrent added: 2009-08-22 19:33:49





Torrent Files List


Torrent downloaded from Demonoid.com.txt (Size: 700.01 MB) (Files: 2)

 Torrent downloaded from Demonoid.com.txt

0.05 KB

 Traffic 2000 DvDrip - marxus.avi

700.01 MB
 

Announce URL: http://inferno.demonoid.com:3417/announce

Torrent description

General
Complete name : Traffic 2004 DvDrip - marxus.avi
Format : AVI
Format/Info : Audio Video Interleave
File size : 700 MiB
Duration : 2h 21mn
Overall bit rate : 694 Kbps
Writing application : VirtualDubMod 1.5.4.1 (build 2178/release)
Writing library : VirtualDubMod build 2178/release

Video
ID : 0
Format : MPEG-4 Visual
Format profile : [email protected]
Format settings, BVOP : Yes
Format settings, QPel : No
Format settings, GMC : No warppoints
Format settings, Matrix : Custom
Codec ID : XVID
Codec ID/Hint : XviD
Duration : 2h 21mn
Bit rate : 574 Kbps
Width : 528 pixels
Height : 288 pixels
Display aspect ratio : 16/9
Frame rate : 25.000 fps
Resolution : 24 bits
Colorimetry : 4:2:0
Scan type : Progressive
Bits/(Pixel*Frame) : 0.151
Stream size : 580 MiB (83%)
Writing library : XviD 1.2.1 (UTC 2008-12-04)

Audio
ID : 1
Format : MPEG Audio
Format version : Version 1
Format profile : Layer 3
Codec ID : 55
Codec ID/Hint : MP3
Duration : 2h 21mn
Bit rate mode : Variable
Bit rate : 106 Kbps
Nominal bit rate : 128 Kbps
Channel(s) : 2 channels
Sampling rate : 48.0 KHz
Resolution : 16 bits
Stream size : 107 MiB (15%)
Alignment : Aligned on interleaves
Interleave, duration : 24 ms (0.60 video frame)
Interleave, preload duration : 241 ms
Writing library : LAME3.98r
Encoding settings : -m j -V 4 -q 2 -lowpass 17 --abr 128
Language : English

related torrents

Torrent name

health leech seeds Size
 

comments (0)

Main Menu