Action

Tokyo Gore Police 2008 STV DVDRip XviD FLF

  • Download 5x Faster
  • Download torrent
  • Direct Download
  • Rate this torrent +  |  -
Tokyo Gore Police 2008 STV DVDRip XviD FLF

Free and Direct Download with Usenet 300GB+ free


Torrent info

Name:Tokyo Gore Police 2008 STV DVDRip XviD FLF

Total Size: 1.36 GB

Magnet: Magnet Link

Seeds: 1

Leechers: 0

Stream: Watch Online @ Movie4u

Last Updated: 2010-09-30 07:32:13 (Update Now)

Torrent added: 2009-08-22 19:26:38




Torrent Files List


Tokyo.Gore.Police.2008.VOSTFR.DVDRip.XviD-FLF.CD2.avi (Size: 1.36 GB) (Files: 7)

 Tokyo.Gore.Police.2008.VOSTFR.DVDRip.XviD-FLF.CD2.avi

696.61 MB

 Tokyo.Gore.Police.2008.VOSTFR.DVDRip.XviD-FLF.CD1.avi

699.70 MB

 Tokyo.Gore.Police.2008.STV.DVDRip.XviD-FLF.nfo

15.47 KB

 SUBS

  FR

   Tokyo.Gore.Police.2008.VOSTFR.DVDRip.XviD-FLF.CD2.FR.srt

17.14 KB

   Tokyo.Gore.Police.2008.VOSTFR.DVDRip.XviD-FLF.CD1.FR.srt

23.72 KB

  ENG

   Tokyo.Gore.Police.2008.VOSTFR.DVDRip.XviD-FLF.CD2.ENG.srt

16.50 KB

   Tokyo.Gore.Police.2008.VOSTFR.DVDRip.XviD-FLF.CD1.ENG.srt

22.89 KB
 

Announce URL: http://tracker.thepiratebay.org:80/announce

Torrent description

Tokyo.Gore.Police

Language : JAPAN
Subtitles : FR / ENG

2008

Action | Gore | Comedy

2H

2008
***************************************************************************************************
CD1

General

Complete name : Tokyo.Gore.Police.2008.STV.DVDRip.XviD-FLF.CD1
Format : AVI
Format/Info : Audio Video Interleave
File size : 700 MiB
Duration : 58mn 28s
Overall bit rate : 1 673 Kbps
Writing application : VirtualDubMod 1.5.10.2 (build 2540/release)
Writing library : VirtualDubMod build 2540/release

Video
Format : MPEG-4 Visual
Format profile : Streaming [email protected]
Format settings, BVOP : Yes
Format settings, QPel : No
Format settings, GMC : No warppoints
Format settings, Matrix : Default
Codec ID : XVID
Codec ID/Hint : XviD
Duration : 58mn 28s
Bit rate : 1 216 Kbps
Width : 672 pixels
Height : 368 pixels
Display aspect ratio : 16/9
Frame rate : 23.976 fps
Resolution : 24 bits
Colorimetry : 4:2:0
Scan type : Progressive
Bits/(Pixel*Frame) : 0.205
Stream size : 508 MiB (73%)
Writing library : XviD 1.1.2 (UTC 2006-11-01)

Audio
Format : AC-3
Format/Info : Audio Coding 3
Codec ID : 2000
Duration : 58mn 28s
Bit rate mode : Constant
Bit rate : 448 Kbps
Channel(s) : 6 channels
Channel positions : Front: L C R, Surround: L R, LFE
Sampling rate : 48.0 KHz
Stream size : 187 MiB (27%)
Alignment : Split accross interleaves
Interleave, duration : 42 ms (1.00 video frame)
Interleave, preload duration : 500 ms
***************************************************************************************************
CD2

General

Complete name : Tokyo.Gore.Police.2008.STV.DVDRip.XviD-FLF.CD2
Format : AVI
Format/Info : Audio Video Interleave
File size : 697 MiB
Duration : 51mn 56s
Overall bit rate : 1 875 Kbps
Writing application : VirtualDubMod 1.5.10.2 (build 2540/release)
Writing library : VirtualDubMod build 2540/release

Video
Format : MPEG-4 Visual
Format profile : Streaming [email protected]
Format settings, BVOP : Yes
Format settings, QPel : No
Format settings, GMC : No warppoints
Format settings, Matrix : Default
Codec ID : XVID
Codec ID/Hint : XviD
Duration : 51mn 56s
Bit rate : 1 426 Kbps
Width : 672 pixels
Height : 368 pixels
Display aspect ratio : 16/9
Frame rate : 23.976 fps
Resolution : 24 bits
Colorimetry : 4:2:0
Scan type : Progressive
Bits/(Pixel*Frame) : 0.241
Stream size : 530 MiB (76%)
Writing library : XviD 1.1.2 (UTC 2006-11-01)

Audio
Format : AC-3
Format/Info : Audio Coding 3
Codec ID : 2000
Duration : 50mn 57s
Bit rate mode : Constant
Bit rate : 448 Kbps
Channel(s) : 6 channels
Channel positions : Front: L C R, Surround: L R, LFE
Sampling rate : 48.0 KHz
Video delay : 4ms
Stream size : 163 MiB (23%)
Alignment : Split accross interleaves
Interleave, duration : 43 ms (1.02 video frame)
Interleave, preload duration : 500 ms
***************************************************************************************************

related torrents

Torrent name

health leech seeds Size
 

comments (0)

Main Menu