Action

Three Kings[1999]DVDrip[Eng]AC3[5 1] Atlas47

  • Download 5x Faster
  • Download torrent
  • Direct Download
  • Rate this torrent +  |  -
Three Kings[1999]DVDrip[Eng]AC3[5 1] Atlas47

Anonymous and Free Direct Download 300GB+


Torrent info

Name:Three Kings[1999]DVDrip[Eng]AC3[5 1] Atlas47

Total Size: 1.37 GB

Magnet: Magnet Link

Seeds: 0

Leechers: 1

Stream: Watch Online @ Movie4u

Last Updated: 2011-01-18 06:35:32 (Update Now)

Torrent added: 2009-08-22 19:21:23



VPN For Torrents

Torrent Files List


Three Kings.sub (Size: 1.37 GB) (Files: 6)

 Three Kings.sub

3.30 MB

 Torrent_downloaded_from_Demonoid.com.txt

0.05 KB

 Three Kings.idx

58.41 KB

 Three Kings.nfo

10.22 KB

 Covers

  Three_Kings_Uk.jpg

494.77 KB

 Three Kings.avi

1.37 GB
 

Announce URL: http://tracker.torrentbox.com:2710/announce

Torrent description


±±±±±±±±±±±±±±±±±±±±±±±±±±±±±±±±±±±±±±±±±±±±±±±±±±±±±±±±±±±±±±±±±±±±±±±±±±±±±±±±
± ±
± INFO: ±
± ±
± General ±
± Complete name : Three Kings ±
± Genre : Action / Adventure / Comedy / Drama ±
± Format : AVI ±
± Format/Info : Audio Video Interleave ±
± File size : 1.37 GiB ±
± Duration : 1h 50mn ±
± Overall bit rate : 1 779 Kbps ±
± Writing application : VirtualDubMod 1.5.4.1 (build 2178/release)±
± Writing library : VirtualDubMod build 2178/release ±
± ±
± Video ±
± Format : MPEG-4 Visual ±
± Format settings, BVOP : Yes ±
± Format settings, QPel : No ±
± Format settings, GMC : No warppoints ±
± Format settings, Matrix : Default ±
± Codec ID : DX50 ±
± Codec ID/Hint : DivX 5 ±
± Duration : 1h 50mn ±
± Bit rate : 1 388 Kbps ±
± Width : 608 pixels ±
± Height : 256 pixels ±
± Display aspect ratio : 2.35 ±
± Frame rate : 25.000 fps ±
± Resolution : 24 bits ±
± Colorimetry : 4:2:0 ±
± Scan type : Progressive ±
± Bits/(Pixel*Frame) : 0.357 ±
± Stream size : 1.07 GiB (78%) ±
± Writing library : DivX 2816 ±
± ±
± Audio ±
± Format : AC-3 ±
± Format/Info : Audio Coding 3 ±
± Codec ID : 2000 ±
± Duration : 1h 50mn ±
± Bit rate mode : Constant ±
± Bit rate : 384 Kbps ±
± Channel(s) : 6 channels ±
± Channel positions : Front: L C R, Surround: L R, LFE ±
± Sampling rate : 48.0 KHz ±
± Stream size : 302 MiB (22%) ±
± Alignment : Split accross interleaves ±
± Interleave, duration : 80 ms (2.00 video frames) ±
± Interleave, preload duration : 500 ms ±
± Language : English ±
± Subtitles : English ±
± ±
± IMDb Rating : 7.3/10 ±
± IMDb URL : http://www.imdb.com/title/tt0120188/ ±
± ±
±°°°°°°°°°°°°°°°°°°°°°°°°°°°°°°°°°°°°°°°°°°°°°°°°°°°°°°°°°°°°°°°°°°°°°°°°°°°°°°±
± ±
± Absurdly comic, highly kinetic, at times shockingly emotional, Three Kings ±
± begins when the Gulf War is over. Amid the partying and confusion, four ±
± American soldiers, determined to take home more than sand fleas, go off into ±
± the Iraqi desert to find millions in stolen Kuwaiti gold. They are plunged ±
± into the heart of a democratic uprising that spins the day, and their lives, ±
± out of control. ±
± ±
± ±
± ±
± ±
± ±
±°°°°°°°°°°°°°°°°°°°°°°°°°°°°°°°°°°°°°°°°°°°°°°°°°°°°°°°°°°°°°°°°°°°°°°°°°°°°°°±
± ±
± CAST: ±
± ±
± George Clooney.............Archie Gates ±
± Mark Wahlberg..............Troy Barlow ±
± Ice Cube...................Chief Elgin ±
± Spike Jonze................Conrad Vig ±
± Cliff Curtis...............Amir Abdulah ±
± Nora Dunn..................Adriana Cruz ±
± Jamie Kennedy..............Walter Wogaman ±
± ±
±°°°°°°°°°°°°°°°°°°°°°°°°°°°°°°°°°°°°°°°°°°°°°°°°°°°°°°°°°°°°°°°°°°°°°°°°°°°°°°±
± ±
± Please remember to seed ±
± ±
± Seeding is good for the soul ±
± ±
±±±±±±±±±±±±±±±±±±±±±±±±±±±±±±±±±±±±±±±±±±±±±±±±±±±±±±±±±±±±±±±±±±±±±±±±±±±±±±±±

related torrents

Torrent name

health leech seeds Size
 


comments (0)

Main Menu