Action

Three Kings 1999 DVDRip [H 264 MP4 AAC] ~ Mindbreaker

  • Download 5x Faster
  • Download torrent
  • Direct Download
  • Rate this torrent +  |  -
Three Kings 1999 DVDRip [H 264 MP4 AAC] ~ Mindbreaker

Anonymous and Free Direct Download 300GB+


Torrent info

Name:Three Kings 1999 DVDRip [H 264 MP4 AAC] ~ Mindbreaker

Total Size: 1.23 GB

Magnet: Magnet Link

Seeds: 0

Leechers: 2

Stream: Watch Online @ Movie4u

Last Updated: 2011-01-18 06:33:47 (Update Now)

Torrent added: 2009-08-22 19:21:17



VPN For Torrents

Torrent Files List


Three Kings 1999 DVDRip [H.264-MP4-AAC] ~ Mindbreaker.nfo (Size: 1.23 GB) (Files: 8)

 Three Kings 1999 DVDRip [H.264-MP4-AAC] ~ Mindbreaker.nfo

1.47 KB

 Three Kings 1999 DVDRip [H.264-MP4-AAC] ~ Mindbreaker.mp4

1.22 GB

 Subtitles

  Three Kings 1999 DVDRip [H.264-MP4-AAC] ~ Mindbreaker - Dutch.srt

74.99 KB

 Screenshots

  Three Kings - 003.png

573.96 KB

  Three Kings - 002.png

661.38 KB

  Three Kings - 001.png

764.36 KB

 Covers

  Three Kings - Front.jpg

2.48 MB

  Three Kings - CD.jpg

835.10 KB
 

Announce URL: http://genesis.1337x.org:1337/announce

Torrent description

imdb : http://www.imdb.com/title/tt0120188/
Tagline: In a war without heroes they are kings
Plot: In the aftermath of the Persian Gulf War, 4 soldiers set out to steal gold that was stolen from Kuwait, but they discover people who desperately need their help.
Total Size : 1.22 GB

General
Complete name : Three Kings 1999 DVDRip [H.264-MP4-AAC] ~ Mindbreaker.mp4
Format : H.264/AAC/MP4 - Anamophic
Source : DVD (retail)
File size : 1.22 GiB
Duration : 1h 50mn
Overall bit rate : 1586 Kbps


Video
ID : 1
Format : AVC
Format/Info : Advanced Video Codec
Format profile : [email protected]
Duration : 1h 50mn
Bit rate : 1423 Kbps
Width : 720 pixels
Height : 428 pixels
Display aspect ratio : 2.35
Frame rate : 25.000 fps
Bits/(Pixel*Frame) : 0.185
Stream size : 1.09 GiB (90%)
Writing library : x264 core 65

Audio
ID : 2
Format : AAC
Format/Info : Advanced Audio Codec
Format profile : LC
Duration : 1h 50mn
Bit rate : 160 Kbps
Channel(s) : 2 channels
Sampling rate : 48.0 KHz
Stream size : 126 MiB (10%)
Language : English

Subtitle
Format : SubRip
Language : Dutch
Source : DVD (retail)

http://genesis.1337x.org:1337/announce
http://open.tracker.thepiratebay.org/announce

Three Kings 1999 DVDRip [H 264 MP4 AAC] ~ Mindbreaker preview 0
Three Kings 1999 DVDRip [H 264 MP4 AAC] ~ Mindbreaker preview 1
Three Kings 1999 DVDRip [H 264 MP4 AAC] ~ Mindbreaker preview 2


related torrents

Torrent name

health leech seeds Size
 


comments (0)

Main Menu