Action

The Kingdom of the Crystal Skull 2008 DVDRip XviD Cocc

  • Download 5x Faster
  • Download torrent
  • Direct Download
  • Rate this torrent +  |  -
The Kingdom of the Crystal Skull 2008 DVDRip XviD Cocc

Free and Direct Download with Usenet.nl 300GB+ free


Torrent info

Name:The Kingdom of the Crystal Skull 2008 DVDRip XviD Cocc

Total Size: 700.18 MB

Magnet: Magnet Link

Seeds: 0

Leechers: 15

Stream: Watch Online @ Movie4u

Last Updated: 2010-08-25 16:45:10 (Update Now)

Torrent added: 2009-08-22 19:16:11





Torrent Files List


Swesub (Size: 700.18 MB) (Files: 2)

 Swesub

  Swesub.rar

803.06 KB

 The.Kingdom.of.the.Crystal.Skull.2008.DVDRip.XviD-Cocc.avi

699.40 MB
 

Announce URL: http://vip.tracker.thepiratebay.org:80/announce

Torrent description

Indiana Jones and the Kingdom of the Crystal Skull (2008)


During the Cold War, Soviet agents watch Professor Henry Jones when a young
man brings him a coded message from an aged, demented colleague, Henry Oxley.
Led by the brilliant Irina Spalko, the Soviets tail Jones and the young man,
Mutt, to Peru. With Oxley's code, they find a legendary skull made of a single
piece of quartz. If Jones can deliver the skull to its rightful place, all may
be well; but if Irina takes it to its origin, she'll gain powers that could
endanger the West. Aging professor and young buck join forces with a woman from
Jones's past to face the dangers of the jungle, Russia, and the supernatural.



IMDb http://www.imdb.com/title/tt0367882/

General
Complete name : The.Kingdom.of.the.Crystal.Skull.2008.DVDRip.XviD-Cocc.avi
Format : AVI
Format/Info : Audio Video Interleave
File size : 699 MiB
Duration : 2h 2mn
Overall bit rate : 798 Kbps

Video
Format : MPEG-4 Visual
Format profile : Streaming [email protected]
Format settings, BVOP : Yes
Format settings, QPel : No
Format settings, GMC : No warppoints
Format settings, Matrix : Default
Codec ID : XVID
Codec ID/Hint : XviD
Duration : 2h 2mn
Bit rate : 659 Kbps
Width : 640 pixels
Height : 272 pixels
Display aspect ratio : 2.35
Frame rate : 23.976 fps
Resolution : 24 bits
Colorimetry : 4:2:0
Scan type : Progressive
Bits/(Pixel*Frame) : 0.158
Stream size : 578 MiB (83%)
Writing library : XviD 1.1.2 (UTC 2006-11-01)

Audio
Format : MPEG Audio
Format version : Version 1
Format profile : Layer 3
Codec ID : 55
Codec ID/Hint : MP3
Duration : 2h 2mn
Bit rate mode : Variable
Bit rate : 126 Kbps
Nominal bit rate : 128 Kbps
Channel(s) : 2 channels
Sampling rate : 48.0 KHz
Resolution : 16 bits
Stream size : 110 MiB (16%)
Alignment : Aligned on interleaves
Interleave, duration : 24 ms (0.58 video frame)
Interleave, preload duration : 140 ms
Writing library : LAME3.90.
Encoding settings : ABR

Created with: DP MediaInfo version 1.05 (c) by Dirk Paehl
MediaInfoLib - v0.7.7.6







related torrents

Torrent name

health leech seeds Size
 

comments (0)

Main Menu