Action

The Warriors DVDRip Eng M333

  • Download 5x Faster
  • Download torrent
  • Direct Download
  • Rate this torrent +  |  -
The Warriors DVDRip Eng M333

Free and Direct Download with Usenet.nl 300GB+ free


Torrent info

Name:The Warriors DVDRip Eng M333

Total Size: 705.46 MB

Magnet: Magnet Link

Seeds: 12

Leechers: 3

Stream: Watch Online @ Movie4u

Last Updated: 0000-00-00 00:00:00 (Update Now)

Torrent added: 2009-08-22 19:11:34





Torrent Files List


the warriors.jpg (Size: 705.46 MB) (Files: 6)

 the warriors.jpg

50.70 KB

 NFO.txt

1.91 KB

 The.Warriors.DVDRip.Eng.M333.avi

704.98 MB

 The_Warriors-cd.jpg

173.57 KB

 The_Warriors-front.jpg

275.18 KB

 Torrent downloaded from Demonoid.com.txt

0.05 KB
 

Announce URL: http://tpb.tracker.thepiratebay.org:80/announce

Torrent description

The original and classic gang movie

General
Complete name : The.Warriors.DVDRip.Eng.M333.avi
Format : AVI
Format/Info : Audio Video Interleave
File size : 705 MiB
Duration : 1h 29mn
Overal bit rate : 1103 Kbps
Movie name : The Warriors.DVDRip.Eng.M333
Director : house
Writing application : Lavf51.19.0
Product : EN 102944

Video
Format : MPEG-4 Visual
Format profile : [email protected]
Format settings, BVOP : No
Format settings, QPel : No
Format settings, GMC : No warppoints
Format settings, Matrix : Default
Codec ID : XVID
Codec ID/Hint : XviD
Duration : 1h 29mn
Bit rate : 900 Kbps
Width : 1024 pixels
Height : 574 pixels
Display aspect ratio : 16/9
Frame rate : 25.000 fps
Resolution : 8 bits
Colorimetry : 4:2:0
Scan type : Progressive
Bits/(Pixel*Frame) : 0.061
Stream size : 575 MiB
Writing library : XviD 1.1.2 (UTC 2006-11-01)

Audio
Format : AC-3
Format/Info : Audio Coding 3
Codec ID : 2000
Duration : 1h 29mn
Bit rate mode : Constant
Bit rate : 192 Kbps
Channel(s) : 2 channels
Channel positions : L R
Sampling rate : 48.0 KHz
Stream size : 123 MiB

Hash :920BC3A9A0D611E7D2B02C9776A02A8E5FDE4154

related torrents

Torrent name

health leech seeds Size

Basic DVDrip Eng M333

1 0 608.50 MB 0
 

comments (0)

Main Menu