Action

The Taking Of Pelham 123 CHUPPI

  • Download 5x Faster
  • Download torrent
  • Direct Download
  • Rate this torrent +  |  -
The Taking Of Pelham 123 CHUPPI

Anonymous and free Direct Download 300GB+


Torrent info

Name:The Taking Of Pelham 123 CHUPPI

Total Size: 14.92 KB

Magnet: Magnet Link

Seeds: 0

Leechers: 0

Stream: Watch Online @ Movie4u

Last Updated: 2010-09-17 05:47:06 (Update Now)

Torrent added: 2009-08-22 18:55:34



VPN For Torrents

Torrent Files List


The_Taking_Of_Pelham_123_(2009)_TS_XVID-MAXSPEED.5015111.TPB.torrent (Size: 14.92 KB) (Files: 1)

 The_Taking_Of_Pelham_123_(2009)_TS_XVID-MAXSPEED.5015111.TPB.torrent

14.92 KB
 

Announce URL: http://tracker.openbittorrent.com/announce

Torrent description

The Taking Of Pelham 123 (2009) TS XVID

Format : AVI
Format/Info : Audio Video Interleave
File size : 1.37 GiB
Duration : 1h 40mn
Overall bit rate : 1 946 Kbps
Original source form : MAX TORRENTZ
Copyright : SIGISMUNT

Video
Format : MPEG-4 Visual
Format profile : Simple[@]L3
Format settings, BVOP : No
Format settings, QPel : No
Format settings, GMC : No warppoints
Format settings, Matrix : Default (H.263)
Codec ID : XVID
Codec ID/Hint : XviD
Duration : 1h 40mn
Bit rate : 1 807 Kbps
Width : 688 pixels
Height : 352 pixels
Display aspect ratio : 1.955
Frame rate : 29.970 fps
Resolution : 24 bits
Colorimetry : 4:2:0
Scan type : Progressive
Bits/(Pixel*Frame) : 0.249
Stream size : 1.27 GiB (93%)
Writing library : XviD 1.2.0.dev47 (UTC 2006-11-01)

Audio
Format : MPEG Audio
Format version : Version 1
Format profile : Layer 3
Codec ID : 55
Codec ID/Hint : MP3
Duration : 1h 40mn
Bit rate mode : Constant
Bit rate : 128 Kbps
Channel(s) : 2 channels
Sampling rate : 48.0 KHz
Resolution : 16 bits
Stream size : 92.0 MiB (7%)
Alignment : Aligned on interleaves
Interleave, duration : 33 ms (1.00 video frame)
Interleave, preload duration : 504 ms
Writing library : LAME3.97
Encoding settings : -m j -V 4 -q 2 -lowpass 17 -b 128

Screens:
The Taking Of Pelham 123  CHUPPI   preview 0
The Taking Of Pelham 123  CHUPPI   preview 1
The Taking Of Pelham 123  CHUPPI   preview 2
The Taking Of Pelham 123  CHUPPI   preview 3
The Taking Of Pelham 123  CHUPPI   preview 4

ScreenCaps:
The Taking Of Pelham 123  CHUPPI   preview 5

related torrents

Torrent name

health leech seeds Size
 


comments (0)

Main Menu