Alternative

Cafe' Arabesque [The cream of Arabient Cuisine]tnt village scambioetico[by ramasutra]

  • Download 5x Faster
  • Download torrent
  • Direct Download
  • Rate this torrent +  |  -

Torrent info

Name:Cafe' Arabesque [The cream of Arabient Cuisine]tnt village scambioetico[by ramasutra]

Total Size: 652.77 MB

Magnet: Magnet Link

Seeds: 0

Leechers: 0

Stream: Watch Online @ Movie4u

Last Updated: 2016-01-28 21:57:42 (Update Now)

Torrent added: 2009-08-22 18:54:42





Torrent Files List


disc 2 (Size: 652.77 MB) (Files: 8)

 disc 2

  DJ Hussein - Café Arabesque (The Cream Of Arabient Cuisine) (Disc 2).flac

319.91 MB

  DJ Hussein - Café Arabesque (The Cream Of Arabient Cuisine) (Disc 2).cue

1.64 KB

  Café Arabesque (The Cream Of Arabient Cuisine) (Disc 2).log

2.73 KB

 Disc 1

  Various Artists - Café Arabesque (The Cream Of Arabient Cuisine) (Disc 1).flac

332.13 MB

  Various Artists - Café Arabesque (The Cream Of Arabient Cuisine) (Disc 1).cue

1.46 KB

  Café Arabesque (The Cream Of Arabient Cuisine) (Disc 1).log

2.74 KB

 cover

  Image0003.JPG

302.23 KB

  Image0004.JPG

442.16 KB
 

tracker

leech seeds
 

Torrent description

Cafe' Arabesque [The cream of Arabient Cuisine]tnt village scambioetico[by ramasutra] preview 0

[color=purple] by Ramasutra [/color]

[color=green]:::->Cover<-:::[/color]

Cafe' Arabesque [The cream of Arabient Cuisine]tnt village scambioetico[by ramasutra] preview 1Cafe' Arabesque [The cream of Arabient Cuisine]tnt village scambioetico[by ramasutra] preview 2

[color=green]:::->Dati Album<-:::[/color]

Autore:aa/vv
titolo:Cafe\' Arabesque
Anno: 2005
Genere: Electronic / oriental / chillout
Etichetta:fonte cd /originale /cdda
Cover : Incluse
etichetta :Parklane

[color=green]:::->Tracklist<-:::[/color]


Disc: 1

1. Deep Desert Remix [Club Version] - Souk Criminals
2. Ambarabic Chill [Kemia 12\" Club Mix] - Marrakesh Massive
3. Sahara Trip - Jah Debda
4. Arabesque Lady - Hamid Lafahl, Yousef Marakk
5. Silk Sienna - Pangaean Beat Society
6. Firestorm [Ryadh Remix] - T.I.A.C.
7. Gift [Eastern Lounge Remix] - Uzma
8. Dawn Purity - DJ Elysium, Kamo Crew
9. Oasis Osmosis [Deep Global Groove Version] - Casballah
10. Harem Heaven - Al Khalil
11. Purple Sky [Horizontal Chill] - Bou Se Boli

Disc: 2

1. Global Landscape - DJ Hussein
2. Café Casbah [Funky Fat Buddha Bar Mix] - Sonar Orchestra
3. Twelfth Mirage - Soho Boho, Alidi Dahrain
4. Sweet Turkish Delight [Downtempo Lounge Mix] - Celestial Groove Planet
5. Spirits of the Wind - Hand Of Fatima
6. Shadow Dancing at Sunset [Cairo Edit] - Sorai Khallam
7. Earth Tribe Beat [Extended Euro Mix] - Mehmet Ahman, Mc Arabique
8. Ancient Travellers [Nomads Version] - DJ Prince Patyma
9. Deep Heat [Arabian Version] - Tribal Drift
10. Lost Love Reprise - DJ Madrida
11. Bedolin\'s Dream - DJ Momo, Cheb Rayah




[color=green]:::->Dati Tecnici<-:::[/color]

[color=red] Formato : Flac [/color]
Programma usato [Eac]

[CODE]
Exact Audio Copy V0.99 prebeta 3 from 28. July 2007

EAC extraction logfile from 8. June 2008, 13:29

Various Artists / Café Arabesque (The Cream Of Arabient Cuisine) (Disc 1)

Used drive : _NEC DVD_RW ND-3550A Adapter: 5 ID: 0

Read mode : Secure
Utilize accurate stream : Yes
Defeat audio cache : Yes
Make use of C2 pointers : No

Read offset correction : 48
Overread into Lead-In and Lead-Out : No
Fill up missing offset samples with silence : Yes
Delete leading and trailing silent blocks : No
Null samples used in CRC calculations : No
Used interface : Installed external ASPI interface

Used output format : User Defined Encoder
Selected bitrate : 768 kBit/s
Quality : High
Add ID3 tag : No
Command line compressor : C:\\Programmi\\Exact Audio Copy\\FLAC\\FLAC.EXE
Additional command line options : -6 -V -T \"ARTIST=%a\" -T \"TITLE=%t\" -T \"ALBUM=%g\" -T \"DATE=%y\" -T \"TRACKNUMBER=%n\" -T \"GENRE=%m\" -T \"COMMENT=%e\" %s -o %d


TOC of the extracted CD

Track | Start | Length | Start sector | End sector
---------------------------------------------------------
1 | 0:00.00 | 5:50.74 | 0 | 26323
2 | 5:50.74 | 5:21.27 | 26324 | 50425
3 | 11:12.26 | 3:56.00 | 50426 | 68125
4 | 15:08.26 | 5:01.74 | 68126 | 90774
5 | 20:10.25 | 5:03.42 | 90775 | 113541
6 | 25:13.67 | 5:24.01 | 113542 | 137842
7 | 30:37.68 | 5:04.24 | 137843 | 160666
8 | 35:42.17 | 4:00.00 | 160667 | 178666
9 | 39:42.17 | 6:27.49 | 178667 | 207740
10 | 46:09.66 | 4:33.46 | 207741 | 228261
11 | 50:43.37 | 4:50.22 | 228262 | 250033


Range status and errors

Selected range

Filename D:\\Documents and Settings\\salvo.SN116508160310\\Documenti\\Various Artists - Café Arabesque (The Cream Of Arabient Cuisine) (Disc 1).wav

Peak level 100.0 %
Range quality 100.0 %
Test CRC A6088BF0
Copy CRC A6088BF0
Copy OK

No errors occurred


AccurateRip summary

Track 1 not present in database
Track 2 not present in database
Track 3 not present in database
Track 4 not present in database
Track 5 not present in database
Track 6 not present in database
Track 7 not present in database
Track 8 not present in database
Track 9 not present in database
Track 10 not present in database
Track 11 not present in database

None of the tracks are present in the AccurateRip database

End of status report

------------------------------------------------------------------------

Exact Audio Copy V0.99 prebeta 3 from 28. July 2007

EAC extraction logfile from 8. June 2008, 14:19

DJ Hussein / Café Arabesque (The Cream Of Arabient Cuisine) (Disc 2)

Used drive : _NEC DVD_RW ND-3550A Adapter: 5 ID: 0

Read mode : Secure
Utilize accurate stream : Yes
Defeat audio cache : Yes
Make use of C2 pointers : No

Read offset correction : 48
Overread into Lead-In and Lead-Out : No
Fill up missing offset samples with silence : Yes
Delete leading and trailing silent blocks : No
Null samples used in CRC calculations : No
Used interface : Installed external ASPI interface

Used output format : User Defined Encoder
Selected bitrate : 768 kBit/s
Quality : High
Add ID3 tag : No
Command line compressor : C:\\Programmi\\Exact Audio Copy\\FLAC\\FLAC.EXE
Additional command line options : -6 -V -T \"ARTIST=%a\" -T \"TITLE=%t\" -T \"ALBUM=%g\" -T \"DATE=%y\" -T \"TRACKNUMBER=%n\" -T \"GENRE=%m\" -T \"COMMENT=%e\" %s -o %d


TOC of the extracted CD

Track | Start | Length | Start sector | End sector
---------------------------------------------------------
1 | 0:00.00 | 5:04.69 | 0 | 22868
2 | 5:04.69 | 4:52.17 | 22869 | 44785
3 | 9:57.11 | 1:44.61 | 44786 | 52646
4 | 11:41.72 | 4:01.06 | 52647 | 70727
5 | 15:43.03 | 4:57.56 | 70728 | 93058
6 | 20:40.59 | 4:40.27 | 93059 | 114085
7 | 25:21.11 | 5:10.07 | 114086 | 137342
8 | 30:31.18 | 5:23.15 | 137343 | 161582
9 | 35:54.33 | 5:18.25 | 161583 | 185457
10 | 41:12.58 | 6:26.05 | 185458 | 214412
11 | 47:38.63 | 5:21.34 | 214413 | 238521


Range status and errors

Selected range

Filename D:\\Documents and Settings\\salvo.SN116508160310\\Documenti\\DJ Hussein - Café Arabesque (The Cream Of Arabient Cuisine) (Disc 2).wav

Peak level 100.0 %
Range quality 100.0 %
Test CRC F2967D8A
Copy CRC F2967D8A
Copy OK

No errors occurred


AccurateRip summary

Track 1 not present in database
Track 2 not present in database
Track 3 not present in database
Track 4 not present in database
Track 5 not present in database
Track 6 not present in database
Track 7 not present in database
Track 8 not present in database
Track 9 not present in database
Track 10 not present in database
Track 11 not present in database

None of the tracks are present in the AccurateRip database

End of status report


[/CODE]

related torrents

Torrent name

health leech seeds Size
 

comments (0)

Main Menu