Action

The Most Dangerous Man in America Behold a pale horse

  • Download 5x Faster
  • Download torrent
  • Direct Download
  • Rate this torrent +  |  -
The Most Dangerous Man in America Behold a pale horse

Free and Direct Download with Usenet.nl 300GB+ free


Torrent info

Name:The Most Dangerous Man in America Behold a pale horse

Total Size: 1.90 GB

Magnet: Magnet Link

Seeds: 1

Leechers: 0

Stream: Watch Online @ Movie4u

Last Updated: 2016-12-02 10:02:15 (Update Now)

Torrent added: 2009-08-22 18:24:57





Torrent Files List


The Most Dangerous Man in America Behold a pale horse.nfo.sfv (Size: 10.12 KB) (Files: 2)

 The Most Dangerous Man in America Behold a pale horse.nfo.sfv

6.01 KB

 The Most Dangerous Man in America Behold a pale horse.nfo.nfo

4.10 KB
 

tracker

leech seeds
 

Torrent description

William Cooper.Behold a Pale Horse.Video Lecture.1991.4h39m

Many ufologists striving for mainstream acceptance ignored Cooper, yet he became a popular speaker on the UFO lecture circuit, and expanded his account into the book Behold a Pale Horse.

Cooper is perhaps best known for this 1991 book which details many of his claims about various conspiracy theories. The title is from the Bible, Revelation 6:8: "And I looked, and behold a pale horse: and his name that sat on him was Death, and Hell followed with him." This includes the text of The Protocols of the Learned Elders of Zion. Cooper placed a notice at the beginning of the chapter claiming that the Protocols were not about Jews but merely disguised as such, in truth detailing the New World Order conspiracy.

Written after Cooper had briefly been a member of the US Naval Intelligence Briefing Team of the Commander in Chief of the United States Pacific Fleet, Behold a Pale Horse details Cooper's claims about the influence of UFOs on the US government, the New World Order, the assassination of President Kennedy, and the Apollo Moon landing.

Cooper later stated that he had been deceived by superiors into believing the UFO conspiracy. In a paper available at his website (hourofthetime.com) called MAJESTYTWELVE he stated:

When I saw Operation Majority while serving in the Navy I believed the alien threat was real just like everyone else. It was not until I had performed many years of research that I was able to fully understand exactly what it was that I had seen. It was extremely difficult for me to believe that my government and the United States Navy had used me, especially since I had dedicated my life to government and military service. Most government and military personnel cannot and will not believe such and [sic] idea.[2]

However his role within the Briefing Team was extremely minor, in a clerical capacity, and did not last very long. He also held a high level security clearance to classified information. He knew about the reptiliens and the greys.

General
Complete name : The Most Dangerous Man in America William Cooper - Behold a pale horse.avi
Format : AVI
Format/Info : Audio Video Interleave
File size : 1.92 GiB
Duration : 4h 39mn
Overall bit rate : 981 Kbps

Video
ID : 0
Format : MPEG-4 Visual
Format settings, BVOP : Yes
Format settings, QPel : No
Format settings, GMC : No warppoints
Format settings, Matrix : Default (H.263)
Muxing mode : Packed bitstream
Codec ID : DX50
Codec ID/Hint : DivX 5
Duration : 4h 39mn
Bit rate : 777 Kbps
Width : 352 pixels
Height : 288 pixels
Display aspect ratio : 1.222
Frame rate : 29.970 fps
Resolution : 24 bits
Colorimetry : 4:2:0
Scan type : Progressive
Bits/(Pixel*Frame) : 0.256
Stream size : 1.52 GiB (79%)
Writing library : DivX 5.0.5 (UTC 2003-04-24)

Audio
ID : 1
Format : MPEG Audio
Format version : Version 1
Format profile : Layer 3
Codec ID : 55
Codec ID/Hint : MP3
Duration : 4h 39mn
Bit rate mode : Constant
Bit rate : 192 Kbps
Channel(s) : 2 channels
Sampling rate : 44.1 KHz
Resolution : 16 bits
Video delay : 26ms
Stream size : 384 MiB (20%)
Alignment : Split accross interleaves
Interleave, duration : 33 ms (1.00 video frame)
Title : Audio Stream

www.lightning-scene.com

related torrents

Torrent name

health leech seeds Size
 

comments (0)

Main Menu