Action

The Matrix MP4 M333 FLAWL3SS

  • Download 5x Faster
  • Download torrent
  • Direct Download
  • Rate this torrent +  |  -
The Matrix MP4 M333 FLAWL3SS

Free and Direct Download with Usenet 300GB+ free


Torrent info

Name:The Matrix MP4 M333 FLAWL3SS

Total Size: 351.36 MB

Magnet: Magnet Link

Seeds: 0

Leechers: 0

Stream: Watch Online @ Movie4u

Last Updated: 0000-00-00 00:00:00 (Update Now)

Torrent added: 2009-08-22 18:22:20




Torrent Files List


The Matrix MP4 M333-FLAWL3SS.m4v (Size: 351.36 MB) (Files: 2)

 The Matrix MP4 M333-FLAWL3SS.m4v

351.16 MB

 Logo.jpg

205.50 KB
 

Announce URL: http://open.tracker.thepiratebay.org/announce

Torrent description

General
Complete name : D:\FLAWL3SS Releases\The Matrix MP4 M333-FLAWL3SS\The Matrix MP4 M333-FLAWL3SS.m4v
Format : MPEG-4
Format profile : Base Media
Codec ID : isom
File size : 351 MiB
Duration : 2h 16mn
Overal bit rate : 360 Kbps
Movie name : The Matrix MP4 M333-FLAWL3SS_RG
Album : M T
Performer : M333
Screenplay by : M333

Video
Format : AVC
Format/Info : Advanced Video Codec
Format profile : Baseline@L1.3
Format settings, CABAC : No
Format settings, ReFrames : 1 frame
Codec ID : avc1
Duration : 2h 16mn
Bit rate mode : Variable
Bit rate : 259 Kbps
Width : 320 pixels
Height : 126 pixels
Display aspect ratio : 2.540
Frame rate mode : Constant
Frame rate : 29.970 fps
Colorimetry : 4:2:0
Scan type : Progressive
Bits/(Pixel*Frame) : 0.214
Stream size : 252 MiB

Audio
Format : AAC
Format/Info : Advanced Audio Codec
Format version : Version 4
Format profile : LC
Format settings, SBR : No
Codec ID : 40
Duration : 2h 16mn
Bit rate mode : Variable
Bit rate : 96.0 Kbps
Channel(s) : 2 channels
Channel positions : L R
Sampling rate : 48.0 KHz
Resolution : 16 bits
Stream size : 94.0 MiB

Hash 6EECAC078BBDDBE0E3905B4DDA4C80A59B65BC28

Trackers

http://open.tracker.thepiratebay.org/announce

http://denis.stalker.h3q.com:6969/announce

http://www.torrentsnipe.info:2701/announce

http://vip.tracker.thepiratebay.org:80/announce


Screen Shots

The Matrix MP4 M333 FLAWL3SS preview 0

The Matrix MP4 M333 FLAWL3SS preview 1

The Matrix MP4 M333 FLAWL3SS preview 2

The Matrix MP4 M333 FLAWL3SS preview 3

The Matrix MP4 M333 FLAWL3SS preview 4

The Matrix MP4 M333 FLAWL3SS preview 5

related torrents

Torrent name

health leech seeds Size
 

comments (0)

Main Menu