Alternative

Amorphis Discographie 1993 2009

  • Download 5x Faster
  • Download torrent
  • Direct Download
  • Rate this torrent +  |  -
Amorphis Discographie 1993 2009

Free and Direct Download with Usenet.nl 300GB+ free


Torrent info

Name:Amorphis Discographie 1993 2009

Total Size: 1.33 GB

Magnet: Magnet Link

Seeds: 0

Leechers: 0

Stream: Watch Online @ Movie4u

Last Updated: 2015-09-27 16:39:10 (Update Now)

Torrent added: 2009-08-22 18:16:02





Torrent Files List


2009 CDS - Silver Bride (Size: 1.31 GB) (Files: 158)

 2009 CDS - Silver Bride

  cover.jpg

54.52 KB

  03 - Separated.mp3

7.15 MB

  02 - Silver Bride (Album Version).mp3

7.21 MB

  01 - Silver Bride (Edit).mp3

6.02 MB

 2009 - Skyforger

  cover.jpg

107.19 KB

  Amorphis-2009-Skyforger.jpg

715.08 KB

  11 - Godlike Machine.mp3

11.03 MB

  10 - From Earth I Rose.mp3

10.44 MB

  09 - Course Of Fate.mp3

8.86 MB

  08 - Skyforger.mp3

10.98 MB

  07 - Highest Star.mp3

9.45 MB

  06 - My Sun.mp3

8.57 MB

  05 - Majestic Beast.mp3

8.90 MB

  04 - Sky Is Mine.mp3

9.12 MB

  03 - From The Heaven Of My Heart.mp3

10.77 MB

  02 - Silver Bride.mp3

8.80 MB

  01 - Sampo.mp3

12.91 MB

 2007 - Silent Waters

  cover.jpg

64.54 KB

  Scans.7z

20.69 MB

  11 - Sign.mp3

10.41 MB

  10 - Black River.mp3

8.43 MB

  09 - The White Swan.mp3

11.02 MB

  08 - Shaman.mp3

11.17 MB

  07 - Enigma.mp3

8.06 MB

  06 - Her Alone.mp3

13.49 MB

  05 - I Of Crimson Blood.mp3

11.51 MB

  04 - Towards And Against.mp3

11.30 MB

  03 - Silent Waters.mp3

11.04 MB

  02 - A Servant.mp3

8.91 MB

  01 - Weaving The Incantation.mp3

11.30 MB

 2006 - Eclipse

  scans.7z

27.50 MB

  cover.jpg

69.93 KB

  11 - Stone Woman (bonus track).mp3

7.84 MB

  10 - Empty Opening.mp3

12.15 MB

  09 - Brother Moon.mp3

10.50 MB

  08 - Same Flesh.mp3

9.76 MB

  07 - The Smoke.mp3

8.10 MB

  06 - Perkele (The God Of Fire).mp3

7.75 MB

  05 - Under A Soil And Black Stone.mp3

9.03 MB

  04 - Born From Fire.mp3

8.77 MB

  03 - Leaves Scar.mp3

7.99 MB

  02 - House Of Sleep.mp3

8.86 MB

  01 - Two Moons.mp3

7.36 MB

 2003 - Far From The Sun

  cover.jpg

62.50 KB

  Scans.7z

1.07 MB

  10 - Smithereens.mp3

9.71 MB

  09 - Higher Ground.mp3

11.22 MB

  08 - God Of Deception.mp3

7.40 MB

  07 - Killing Goodness.mp3

8.04 MB

  06 - Ethereal Solitude.mp3

8.54 MB

  05 - Far From The Sun.mp3

8.42 MB

  04 - Mourning Soil.mp3

7.86 MB

  03 - Evil Inside.mp3

8.28 MB

  02 - Planetary Misfortune.mp3

9.38 MB

  01 - Day Of Your Beliefs.mp3

10.48 MB

 2003 - Chapters

  cover.jpg

64.45 KB

  Scans.7z

18.69 MB

  17 - The Lost Name Of God.mp3

12.26 MB

  16 - The Exile Of The Sons Of Uisliu.mp3

8.24 MB

  15 - Warriors Trial.mp3

10.92 MB

  14 - Drowned Maid.mp3

9.90 MB

  13 - The Castaway.mp3

12.27 MB

  12 - Black Winter Day.mp3

8.34 MB

  11 - Moon And Sun.mp3

8.12 MB

  10 - Weeper On The Shore.mp3

10.74 MB

  09 - My Kantele.mp3

10.32 MB

  08 - Better Unborn.mp3

12.37 MB

  06 - Summer's End.mp3

11.84 MB

  05 - Northern Lights.mp3

6.88 MB

  04 - The Way.mp3

9.67 MB

  03 - Too Much To See.mp3

7.51 MB

  02 - Drifting Memories.mp3

9.41 MB

  01 - Alone.mp3

9.30 MB

 2002 CDS - Evil Inside

  cover.jpg

3.64 KB

  03 - Follow Me Into The Fire.mp3

7.44 MB

  02 - Shining Turns To Gray.mp3

4.09 MB

  01 - Evil Inside.mp3

5.46 MB

 2001 - Am Universum

  cover.jpg

71.75 KB

  Scans.7z

22.12 MB

  11 - Too Much Too See.mp3

5.04 MB

  10 - Grieve Stricken Heart.mp3

13.62 MB

  09 - Captured State.mp3

9.39 MB

  08 - Veil Of Sin.mp3

10.71 MB

  07 - Forever More.mp3

9.80 MB

  06 - Drifting Memories.mp3

9.35 MB

  05 - Crimson Wave.mp3

9.56 MB

  04 - Shatters Within.mp3

10.85 MB

  03 - The Night Is Over.mp3

9.03 MB

  02 - Goddess (Of The Sad Man).mp3

8.23 MB

  01 - Alone.mp3

12.93 MB

 1999 - Tuonela

  cover.jpg

60.52 KB

  Scans.7z

244.59 KB

  10 - Summer's End.mp3

11.47 MB

  09 - Rusty Moon.mp3

10.23 MB

  08 - Withered.mp3

12.11 MB

  07 - Shining.mp3

9.43 MB

  06 - Divinity.mp3

9.90 MB

  05 - Greed.mp3

9.18 MB

  04 - Tuonela.mp3

8.94 MB

  03 - Nightfall.mp3

8.11 MB

  02 - Morning Star.mp3

8.44 MB

  01 - The Way.mp3

9.57 MB

 1996 EP - My Kantele

  cover.jpg

231.30 KB

  05 - And I Hear You Call.mp3

6.44 MB

  04 - Levitation.mp3

8.07 MB

  01 - My Kantele (Acoustic Reprise).mp3

8.18 MB

 1996 - Elegy

  cover.jpg

303.69 KB

  Scans.7z

16.45 MB

  15 - Black Winter Day (Live).mp3

5.29 MB

  14 - The Castaway (Live).mp3

8.08 MB

  13 - Against Widows (Live).mp3

6.26 MB

  12 - Better Unborn (Live).mp3

12.44 MB

  11 - My Kantele (Acoustic Reprise).mp3

12.48 MB

  10 - Relief.mp3

8.75 MB

  09 - Elegy.mp3

14.04 MB

  08 - Weeper On The Shore.mp3

9.70 MB

  07 - Song Of The Troubled One.mp3

8.07 MB

  06 - Cares.mp3

8.93 MB

  05 - My Kantele.mp3

10.01 MB

  04 - On Rich And Poor.mp3

10.62 MB

  03 - The Orphan.mp3

10.33 MB

  02 - Against Widows.mp3

8.14 MB

  01 - Better Unborn.mp3

11.52 MB

 1994 - Tales From The Thousand Lakes & Black Winter Day

  cover_bwd.jpg

173.80 KB

  cover.jpg

216.25 KB

  Scans.7z

2.16 MB

  13 - Moon And Sun Part II North's Son.mp3

10.67 MB

  12 - Moon And Sun.mp3

7.80 MB

  11 - Folk Of The North.mp3

2.61 MB

  10 - Magic And Mayhem.mp3

9.19 MB

  09 - To Father's Cabin.mp3

8.08 MB

  08 - Forgotten Sunrise.mp3

10.54 MB

  07 - In The Beginning.mp3

7.81 MB

  06 - Drowned Maid.mp3

9.58 MB

  05 - Black Winter Day.mp3

8.18 MB

  04 - First Doom.mp3

8.07 MB

  03 - The Castaway.mp3

11.65 MB

  02 - Into Hiding.mp3

7.99 MB

  01 - Thousand Lakes.mp3

4.51 MB

 1993 EP - Privilege Of Evil

  cover.jpg

47.32 KB

  06 - Excursing From Existence.mp3

6.56 MB

  05 - Vulgar Necrolatry.mp3

8.52 MB

  04 - Misery Path.mp3

9.11 MB

  03 - Privilege Of Evil.mp3

8.35 MB

  02 - Black Embrace.mp3

7.55 MB

  01 - Pilgrimage From Darkness.mp3

9.74 MB

 1993 - The Karelian Isthmus

  cover.jpg

239.05 KB

  11 - Vulgar Necrolatry.mp3

9.42 MB

  10 - Sign From The North Side.mp3

10.47 MB

  09 - Misery Path.mp3

9.17 MB

  08 - The Pilgrimage.mp3

9.96 MB

  07 - The Lost Name Of God.mp3

11.94 MB

  06 - Exile Of The Sons Of Uisliu.mp3

8.10 MB

  05 - Black Embrace.mp3

7.67 MB

  04 - Warriors Trail.mp3

10.59 MB

  03 - Grail's Mysteries.mp3

6.31 MB

  02 - The Gathering.mp3

9.41 MB

  01 - Karelia.mp3

1.29 MB
 

tracker

leech seeds
 

Torrent description

Amorphis Discographie 1993 - 2009 [MP3]


Beschreibung:

Amorphis Discographie mit CDs und EPs von 1993 bis 2009. Ohne Anspruch auf Vollständigkeit. Fast alle Alben aus dem alten Torrent mit CBR 192 sind jetzt als VBR Extreme enthalten.

Alben:
1993 EP - Privilege Of Evil
1993 - The Karelian Isthmus
1994 - Tales From The Thousand Lakes & Black Winter Day
1996 - Elegy
1996 EP - My Kantele
1999 - Tuonela
2001 - Am Universum
2002 CDS - Evil Inside
2003 - Chapters
2003 - Far From The Sun
2006 - Eclipse
2007 - Silent Waters
2009 CDS - Silver Bride
2009 - Skyforger

ID3 Tag: 2.4 (2.4)

General
Complete name : ./1993 - The Karelian Isthmus/01 - Karelia.mp3
Format : MPEG Audio
File size : 1.29 MiB
Duration : 45s 191ms
Overall bit rate : 238 Kbps
Album : The Karelian Isthmus
Track name : Karelia
Track name/Position : 01
Performer : Amorphis
Genre : Metal
Recorded date : 1993
Writing library : LAME3.98r
Encoding settings : LAME 32bits version 3.98.2 (http://www.mp3dev.org/)

Audio
Format : MPEG Audio
Format version : Version 1
Format profile : Layer 3
Duration : 45s 190ms
Bit rate mode : Variable
Bit rate : 238 Kbps
Minimum bit rate : 32.0 Kbps
Channel(s) : 2 channels
Sampling rate : 44.1 KHz
Resolution : 16 bits
Stream size : 1.28 MiB (100)
Writing library : LAME3.98r
Encoding settings : -m j -V 0 -q 2 -lowpass 19.5 --vbr-old -b 32


General
Complete name : ./1993 EP - Privilege Of Evil/01 - Pilgrimage From Darkness.mp3
Format : MPEG Audio
File size : 9.74 MiB
Duration : 4mn 30s
Overall bit rate : 302 Kbps
Album : Privilege Of Evil
Track name : Pilgrimage From Darkness
Track name/Position : 01
Performer : Amorphis
Genre : Metal
Recorded date : 1993
Writing library : LAME3.98r
Encoding settings : LAME 32bits version 3.98.2 (http://www.mp3dev.org/)

Audio
Format : MPEG Audio
Format version : Version 1
Format profile : Layer 3
Duration : 4mn 30s
Bit rate mode : Variable
Bit rate : 302 Kbps
Minimum bit rate : 32.0 Kbps
Channel(s) : 2 channels
Sampling rate : 44.1 KHz
Resolution : 16 bits
Stream size : 9.74 MiB (100)
Writing library : LAME3.98r
Encoding settings : -m j -V 0 -q 2 -lowpass 19.5 --vbr-old -b 32


General
Complete name : ./2001 - Am Universum/01 - Alone.mp3
Format : MPEG Audio
File size : 12.9 MiB
Duration : 6mn 17s
Overall bit rate : 287 Kbps
Album : Am Universum
Track name : Alone
Track name/Position : 01
Performer : Amorphis
Genre : Metal
Recorded date : 2001
Writing library : LAME3.98r
Encoding settings : LAME 32bits version 3.98.2 (http://www.mp3dev.org/)

Audio
Format : MPEG Audio
Format version : Version 1
Format profile : Layer 3
Duration : 6mn 17s
Bit rate mode : Variable
Bit rate : 287 Kbps
Minimum bit rate : 32.0 Kbps
Channel(s) : 2 channels
Sampling rate : 44.1 KHz
Resolution : 16 bits
Stream size : 12.9 MiB (100)
Writing library : LAME3.98r
Encoding settings : -m j -V 0 -q 2 -lowpass 19.5 --vbr-old -b 32


General
Complete name : ./1999 - Tuonela/01 - The Way.mp3
Format : MPEG Audio
File size : 9.57 MiB
Duration : 4mn 35s
Overall bit rate : 291 Kbps
Album : Tuonela
Track name : The Way
Track name/Position : 01
Performer : Amorphis
Genre : Metal
Recorded date : 1999
Writing library : LAME3.98r
Encoding settings : LAME 32bits version 3.98.2 (http://www.mp3dev.org/)

Audio
Format : MPEG Audio
Format version : Version 1
Format profile : Layer 3
Duration : 4mn 35s
Bit rate mode : Variable
Bit rate : 291 Kbps
Minimum bit rate : 32.0 Kbps
Channel(s) : 2 channels
Sampling rate : 44.1 KHz
Resolution : 16 bits
Stream size : 9.57 MiB (100)
Writing library : LAME3.98r
Encoding settings : -m j -V 0 -q 2 -lowpass 19.5 --vbr-old -b 32


General
Complete name : ./2007 - Silent Waters/01 - Weaving The Incantation.mp3
Format : MPEG Audio
File size : 11.3 MiB
Duration : 4mn 57s
Overall bit rate : 319 Kbps
Album : Silent Waters
Track name : Weaving The Incantation
Track name/Position : 01
Performer : Amorphis
Genre : Metal
Recorded date : 2007
Writing library : LAME3.97

Audio
Format : MPEG Audio
Format version : Version 1
Format profile : Layer 3
Duration : 4mn 57s
Bit rate mode : Variable
Bit rate : 319 Kbps
Minimum bit rate : 32.0 Kbps
Channel(s) : 2 channels
Sampling rate : 44.1 KHz
Resolution : 16 bits
Stream size : 11.3 MiB (100)
Writing library : LAME3.97
Encoding settings : -m j -V 0 -q 3 -lowpass 19.5 --vbr-old -b 32


General
Complete name : ./2009 CDS - Silver Bride/01 - Silver Bride (Edit).mp3
Format : MPEG Audio
File size : 6.02 MiB
Duration : 3mn 28s
Overall bit rate : 242 Kbps
Album : Silver Bride
Track name : Silver Bride (Edit)
Track name/Position : 01
Performer : Amorphis
Genre : Metal
Recorded date : 2009
Writing library : EAC / LAME3.97
Encoding settings : Lame 3.97
CATEGORY : Maxi
DESCRIPTION : Amorphis is a Finnish metal band started by Jan Rechberger, Tomi Koivusaari, and Esa Holopainen in 1990. Initially, the band was a straightforward death metal act, but on later albums they evolved into playing other types of genres. Noteworthy is their frequent use of the Finnish national epic, the Kalevala, as a source for their lyrics.
HOSTER : Yourfiles
RIPPER : NMR
SOURCE : CD
URL : http://www.amorphis.net/

Audio
Format : MPEG Audio
Format version : Version 1
Format profile : Layer 3
Duration : 3mn 28s
Bit rate mode : Variable
Bit rate : 242 Kbps
Minimum bit rate : 32.0 Kbps
Channel(s) : 2 channels
Sampling rate : 44.1 KHz
Resolution : 16 bits
Stream size : 6.01 MiB (100)
Writing library : LAME3.97
Encoding settings : -m j -V 2 -q 3 -lowpass 18.6 --vbr-new -b 32


General
Complete name : ./2006 - Eclipse/01 - Two Moons.mp3
Format : MPEG Audio
File size : 7.36 MiB
Duration : 3mn 22s
Overall bit rate : 305 Kbps
Album : Eclipse
Track name : Two Moons
Track name/Position : 01
Performer : Amorphis
Genre : Metal
Recorded date : 2006
Writing library : LAME3.98r
Encoding settings : LAME 32bits version 3.98.2 (http://www.mp3dev.org/)

Audio
Format : MPEG Audio
Format version : Version 1
Format profile : Layer 3
Duration : 3mn 22s
Bit rate mode : Variable
Bit rate : 305 Kbps
Minimum bit rate : 32.0 Kbps
Channel(s) : 2 channels
Sampling rate : 44.1 KHz
Resolution : 16 bits
Stream size : 7.36 MiB (100)
Writing library : LAME3.98r
Encoding settings : -m j -V 0 -q 2 -lowpass 19.5 --vbr-old -b 32


General
Complete name : ./2002 CDS - Evil Inside/01 - Evil Inside.mp3
Format : MPEG Audio
File size : 5.46 MiB
Duration : 3mn 58s
Overall bit rate : 192 Kbps
Album : Evil Inside
Track name : Evil Inside
Track name/Position : 01
Performer : Amorphis
Genre : Metal
Recorded date : 2002
Writing library : LAME3.93

Audio
Format : MPEG Audio
Format version : Version 1
Format profile : Layer 3
Duration : 3mn 58s
Bit rate mode : Constant
Bit rate : 192 Kbps
Channel(s) : 2 channels
Sampling rate : 44.1 KHz
Resolution : 16 bits
Stream size : 5.45 MiB (100)
Writing library : LAME3.93
Encoding settings : -m j -V 4 -q 2 -lowpass 19.5 -b 192


General
Complete name : ./2009 - Skyforger/01 - Sampo.mp3
Format : MPEG Audio
File size : 12.9 MiB
Duration : 6mn 8s
Overall bit rate : 293 Kbps
Album : Skyforger
Track name : Sampo
Track name/Position : 01
Performer : Amorphis
Genre : Metal
Recorded date : 2009
Writing library : LAME3.98r
Encoding settings : LAME 32bits version 3.98.2 (http://www.mp3dev.org/)

Audio
Format : MPEG Audio
Format version : Version 1
Format profile : Layer 3
Duration : 6mn 8s
Bit rate mode : Variable
Bit rate : 293 Kbps
Minimum bit rate : 32.0 Kbps
Channel(s) : 2 channels
Sampling rate : 44.1 KHz
Resolution : 16 bits
Stream size : 12.9 MiB (100)
Writing library : LAME3.98r
Encoding settings : -m j -V 0 -q 2 -lowpass 19.5 --vbr-old -b 32


General
Complete name : ./1996 EP - My Kantele/01 - My Kantele (Acoustic Reprise).mp3
Format : MPEG Audio
File size : 8.18 MiB
Duration : 5mn 57s
Overall bit rate : 192 Kbps
Album : My Kantele
Track name : My Kantele (acoustic Reprise)
Track name/Position : 01
Performer : Amorphis
Genre : Metal
Recorded date : 1996
Writing library : LAME3.93

Audio
Format : MPEG Audio
Format version : Version 1
Format profile : Layer 3
Duration : 5mn 57s
Bit rate mode : Constant
Bit rate : 192 Kbps
Channel(s) : 2 channels
Sampling rate : 44.1 KHz
Resolution : 16 bits
Stream size : 8.17 MiB (100)
Writing library : LAME3.93


General
Complete name : ./2003 - Chapters/01 - Alone.mp3
Format : MPEG Audio
File size : 9.30 MiB
Duration : 4mn 23s
Overall bit rate : 296 Kbps
Album : Chapters
Track name : Alone
Track name/Position : 01
Performer : Amorphis
Genre : Metal
Recorded date : 2003
Writing library : LAME3.98r
Encoding settings : LAME 32bits version 3.98.2 (http://www.mp3dev.org/)

Audio
Format : MPEG Audio
Format version : Version 1
Format profile : Layer 3
Duration : 4mn 23s
Bit rate mode : Variable
Bit rate : 296 Kbps
Minimum bit rate : 32.0 Kbps
Channel(s) : 2 channels
Sampling rate : 44.1 KHz
Resolution : 16 bits
Stream size : 9.30 MiB (100)
Writing library : LAME3.98r
Encoding settings : -m j -V 0 -q 2 -lowpass 19.5 --vbr-old -b 32


General
Complete name : ./2003 - Far From The Sun/01 - Day Of Your Beliefs.mp3
Format : MPEG Audio
File size : 10.5 MiB
Duration : 5mn 2s
Overall bit rate : 291 Kbps
Album : Far From The Sun
Track name : Day Of Your Beliefs
Track name/Position : 01
Performer : Amorphis
Genre : Metal
Recorded date : 2003
Writing library : LAME3.98r
Encoding settings : LAME 32bits version 3.98.2 (http://www.mp3dev.org/)

Audio
Format : MPEG Audio
Format version : Version 1
Format profile : Layer 3
Duration : 5mn 2s
Bit rate mode : Variable
Bit rate : 291 Kbps
Minimum bit rate : 32.0 Kbps
Channel(s) : 2 channels
Sampling rate : 44.1 KHz
Resolution : 16 bits
Stream size : 10.5 MiB (100)
Writing library : LAME3.98r
Encoding settings : -m j -V 0 -q 2 -lowpass 19.5 --vbr-old -b 32


General
Complete name : ./1996 - Elegy/01 - Better Unborn.mp3
Format : MPEG Audio
File size : 11.5 MiB
Duration : 5mn 52s
Overall bit rate : 274 Kbps
Album : Elegy
Track name : Better Unborn
Track name/Position : 01
Performer : Amorphis
Genre : Metal
Recorded date : 1996
Writing library : LAME3.98r
Encoding settings : LAME 32bits version 3.98.2 (http://www.mp3dev.org/)

Audio
Format : MPEG Audio
Format version : Version 1
Format profile : Layer 3
Duration : 5mn 52s
Bit rate mode : Variable
Bit rate : 274 Kbps
Minimum bit rate : 32.0 Kbps
Channel(s) : 2 channels
Sampling rate : 44.1 KHz
Resolution : 16 bits
Stream size : 11.5 MiB (100)
Writing library : LAME3.98r
Encoding settings : -m j -V 0 -q 2 -lowpass 19.5 --vbr-old -b 32


General
Complete name : ./1994 - Tales From The Thousand Lakes & Black Winter Day/01 - Thousand Lakes.mp3
Format : MPEG Audio
File size : 4.51 MiB
Duration : 2mn 4s
Overall bit rate : 305 Kbps
Album : Tales From The Thousand Lakes & Black Winter Day
Track name : Thousand Lakes
Track name/Position : 01
Performer : Amorphis
Genre : Metal
Recorded date : 1994
Writing library : LAME3.98r
Encoding settings : LAME 32bits version 3.98.2 (http://www.mp3dev.org/)

Audio
Format : MPEG Audio
Format version : Version 1
Format profile : Layer 3
Duration : 2mn 4s
Bit rate mode : Variable
Bit rate : 305 Kbps
Minimum bit rate : 32.0 Kbps
Channel(s) : 2 channels
Sampling rate : 44.1 KHz
Resolution : 16 bits
Stream size : 4.50 MiB (100)
Writing library : LAME3.98r
Encoding settings : -m j -V 0 -q 2 -lowpass 19.5 --vbr-old -b 32
Sprache

related torrents

Torrent name

health leech seeds Size
 

comments (0)

Main Menu