Action

The Last Castle(2001) DVDRip XviD ~ Smeet

  • Download 5x Faster
  • Download torrent
  • Direct Download
  • Rate this torrent +  |  -
The Last Castle(2001) DVDRip XviD ~ Smeet

Free and Direct Download with Usenet.nl 300GB+ free


Torrent info

Name:The Last Castle(2001) DVDRip XviD ~ Smeet

Total Size: 699.57 MB

Magnet: Magnet Link

Seeds: 8

Leechers: 11

Stream: Watch Online @ Movie4u

Last Updated: 0000-00-00 00:00:00 (Update Now)

Torrent added: 2009-08-22 18:08:17





Torrent Files List


The last castle.srt (Size: 699.57 MB) (Files: 3)

 The last castle.srt

119.82 KB

 The Last Castle(2001)-DVDRip-XviD ~ Smeet.avi

699.45 MB

 smeet.nfo

6.98 KB
 

Announce URL: http://open.tracker.thepiratebay.org/announce

Torrent description


################## TM
##^^^^^^^^^^^^^^^^####
############## #^^^^^^^^^^^^^^^^^^^##
###### #### #########^^^^^# #^^^^^#########^^^^^#
###### ####### ###########^^^# #^^^^^^^^^^^^^#^^^^^#
####### ####### ############^^## #^^^^^^^^^^^^^#^^^^^#
################################# ############^^^###^^^^^^^^^^^^^#^^^^^#
############################################^#^^#^^^^^^^^^^^^^^^^#^^^^^#
#####################################^^^^^^^^#^^#########^^^#######^^^^#####
####################################^^^^^^^^^##^^^^^^^^^##^^#^^^^^^^^^^^^^^##
####################################^^^^^^^^^^###^^^^^^^^#^^#^^^^^^^^^^^^^^^##
######################### ##########^^^^^####^^##^^^^^^^^#^^#^^^^^^^^^^^^^^^##
####################################^########^^#^#########^^######^^^^^######
#############################################^^#^#^^^^^^^^^^^^^^^#^^^^^#
##############################################^#^#^^^^^^^^^^^^^^^#^^^^^#
##############################################^#^#^^^^^^^^^^^^^^^#^^^^^#
##################################^^^^^^^^^^#^#^^^^^^^^^^^^^^^#^^^^^#
############################################^^^#^##^^^^^^^^^^^^^^#^^^^^#
##############################################^#^^^###^^^^^^^^^^^#^^^^^#
#################################################^^^^#^^^^^^^^^^^#^^^^^#
###############################################^######^^^^^^^^^^^#^^^^^#
###################### ###### ##############^^^^^^^^^^^########^^^^^#
###################### ###### ##############^^##^^^^^^^# #^^^^^^#
###################### ###### ##################^^^^^^^# #^^^^^^#
############## ############### ######^^# ########
############## ############### ###
#############
MEANS QUALITY

=======================================================
= The Last Castle (2001) =
=======================================================

|##############################################################################|
| |
|GENERAL INFORMATION |
|=================== |
|Format : AVI |
|Format/Info : Audio Video Interleave |
|Format profile : OpenDML |
|File size : 699 MiB |
|Duration : 2h 5mn |
|Overall bit rate : 777 Kbps |
|Language : English |
|SUBTITLE : English |
|GENRE : Action | Drama | Thriller |
|IMDB LINK : http://www.imdb.com/title/tt0272020/ |
|IMDB RATING : 6.5/10 |
|RIPPER : SMEET |
|##############################################################################|

|##############################################################################|
| |
|Video |
|Format : MPEG-4 Visual |
|Format settings, Matrix : Default (H.263) |
|Codec ID : XVID |
|Codec ID/Hint : XviD |
|Duration : 2h 5mnn |
|Width : 640 pixels |
|Height : 256 pixels |
|Display aspect ratio : 2.500 |
|Frame rate : 25.000 fps |
|Resolution : 24 bits |
|Colorimetry : 4:2:0 |
|Scan type : Progressive |
|Bits/(Pixel*Frame) : 0.162 |
|Stream size : 595 MiB (85%) |
|Writing library : XviD 1.2.1 (UTC 2008-12-04) rter. |
|##############################################################################|
|Audio |
|Format : MPEG Audio |
|Format version : Version 1 |
|Format profile : Layer 3 |
|Codec ID : 55 |
|Codec ID/Hint : MP3 |
|Duration : 2h 5mn |
|Bit rate mode : Constant |
|Bit rate : 112 Kbps |
|Channel(s) : 2 channels |
|Sampling rate : 44.1 KHz |
|Resolution : 16 bits |
|Stream size : 101 MiB (14%) |
|Alignment : Aligned on interleaves |
|Interleave, duration : 873 ms (21.81 video frames) |
|Interleave, preload duration : 208 ms |
|Title : last ca~ Smeet T80 3_2ch 384Kbps DELAY 0msm|
|Writing library : LAME3.98r |
|Encoding settings : -m j -V 4 -q 2 -lowpass 15.6 -b 112 |
| AHASHARE.COM |
|##############################################################################|







related torrents

Torrent name

health leech seeds Size
 

comments (0)

Main Menu