Action

THE KINGDOM[2007] A H 264 DVDRIP BY KIDZCORNER&J T R

  • Download 5x Faster
  • Download torrent
  • Direct Download
  • Rate this torrent +  |  -
THE KINGDOM[2007] A H 264 DVDRIP BY KIDZCORNER&J T R

Free and Direct Download with Usenet.nl 300GB+ free


Torrent info

Name:THE KINGDOM[2007] A H 264 DVDRIP BY KIDZCORNER&J T R

Total Size: 782.34 MB

Magnet: Magnet Link

Seeds: 0

Leechers: 0

Stream: Watch Online @ Movie4u

Last Updated: 2015-11-06 20:40:43 (Update Now)

Torrent added: 2009-08-22 18:07:07





Torrent Files List


Tracked by moviesb4time.biz.txt (Size: 782.34 MB) (Files: 5)

 Tracked by moviesb4time.biz.txt

1.35 KB

 Torrent downloaded from Demonoid.com-2.txt

0.05 KB

 kingdom2.mp4

782.28 MB

 828479_DV_L_F.JPG

26.95 KB

 828479_DV_L_B.JPG

32.87 KB
 

tracker

leech seeds
 

Torrent description

this is my new choice of ripsH.264 it is compatible with xbox 360 amongst others/i have played it back on wmp/vlc/and have burned a copy using convertxtodvd it is superb

Oscar winners* Jamie Foxx (Collateral) and Chris Cooper (Jarhead) team up with Jennifer Garner (Daredevil) and Jason Bateman (Smokin' Aces) to ignite the screen in this high-intensity action thriller.
A team of elite FBI agents sent to Saudi Arabia to solve a brutal mass murder find themselves in a race against time to find a killer before he strikes again.
Out of their element, under heavy fire and trusting no-one, the team must join forces with their Saudi counterparts. As these unlikely allies begin to unlock the secrets of the crime, the team is led into a heart-stopping, do-or-die confrontation.


General
Complete name : C:\Users\joker\Documents\THE KINGDOM[2007]-A H.264 DVDRIP BY-KIDZCORNER&J.T.R\kingdom2.mp4
Format : MPEG-4
Format profile : Base Media / Version 2
Codec ID : mp42
File size : 782 MiB
Duration : 1h 45mn
Overall bit rate : 1 039 Kbps
Encoded date : UTC 2009-02-13 12:10:58
Tagged date : UTC 2009-02-13 17:25:29
Writing application : HandBrake 0.9.3 2008112300

Video
Format : AVC
Format/Info : Advanced Video Codec
Format profile : [email protected]
Format settings, CABAC : Yes
Format settings, ReFrames : 3 frames
Codec ID : avc1
Codec ID/Info : Advanced Video Coding
Duration : 1h 45mn
Bit rate mode : Variable
Bit rate : 876 Kbps
Nominal bit rate : 900 Kbps
Width : 720 pixels
Height : 436 pixels
Display aspect ratio : 2.35
Frame rate mode : Variable
Frame rate : 25.000 fps
Minimum frame rate : 12.500 fps
Maximum frame rate : 25.000 fps
Resolution : 24 bits
Colorimetry : 4:2:0
Scan type : Progressive
Bits/(Pixel*Frame) : 0.112
Stream size : 660 MiB (84%)
Writing library : x264 core 65
Encoding settings : cabac=1 / ref=2 / deblock=1:-2:-1 / analyse=0x1:0x131 / me=umh / subme=9 / psy_rd=1.0:0.0 / mixed_ref=1 / me_range=16 / chroma_me=1 / trellis=0 / 8x8dct=0 / cqm=0 / deadzone=21,11 / chroma_qp_offset=-2 / threads=3 / nr=0 / decimate=1 / mbaff=0 / bframes=3 / b_pyramid=1 / b_adapt=1 / b_bias=0 / direct=3 / wpredb=1 / keyint=250 / keyint_min=25 / scenecut=40(pre) / rc=abr / bitrate=900 / ratetol=1.0 / qcomp=0.60 / qpmin=10 / qpmax=51 / qpstep=4 / ip_ratio=1.40 / pb_ratio=1.30 / aq=1:1.00
Encoded date : UTC 2009-02-13 12:10:58
Tagged date : UTC 2009-02-13 17:25:28

Audio
Format : AAC
Format/Info : Advanced Audio Codec
Format version : Version 4
Format profile : LC
Format settings, SBR : No
Codec ID : 40
Duration : 1h 45mn
Bit rate mode : Variable
Bit rate : 159 Kbps
Maximum bit rate : 229 Kbps
Channel(s) : 2 channels
Channel positions : L R
Sampling rate : 48.0 KHz
Resolution : 16 bits
Stream size : 120 MiB (15%)
Language : English
Encoded date : UTC 2009-02-13 12:10:58
Tagged date : UTC 2009-02-13 17:25:25

related torrents

Torrent name

health leech seeds Size
 

comments (0)

Main Menu