Action

THE KINGDOM [DVDRIP][ENG] KIDZCORNER&J T R

  • Download 5x Faster
  • Download torrent
  • Direct Download
  • Rate this torrent +  |  -
THE KINGDOM [DVDRIP][ENG] KIDZCORNER&J T R

Free and Direct Download with Usenet 300GB+ free


Torrent info

Name:THE KINGDOM [DVDRIP][ENG] KIDZCORNER&J T R

Total Size: 699.81 MB

Magnet: Magnet Link

Seeds: 0

Leechers: 0

Stream: Watch Online @ Movie4u

Last Updated: 2015-09-08 14:26:41 (Update Now)

Torrent added: 2009-08-22 18:06:59




Torrent Files List


Tracked by moviesb4time.biz.txt (Size: 699.81 MB) (Files: 5)

 Tracked by moviesb4time.biz.txt

1.35 KB

 Torrent downloaded from Demonoid.com-3.txt

0.05 KB

 MAIN MOVIE.avi

699.75 MB

 828479_DV_L_F.JPG

26.95 KB

 828479_DV_L_B.JPG

32.87 KB
 

tracker

leech seeds
 

Torrent description

Oscar winners* Jamie Foxx (Collateral) and Chris Cooper (Jarhead) team up with Jennifer Garner (Daredevil) and Jason Bateman (Smokin' Aces) to ignite the screen in this high-intensity action thriller.
A team of elite FBI agents sent to Saudi Arabia to solve a brutal mass murder find themselves in a race against time to find a killer before he strikes again.
Out of their element, under heavy fire and trusting no-one, the team must join forces with their Saudi counterparts. As these unlikely allies begin to unlock the secrets of the crime, the team is led into a heart-stopping, do-or-die confrontation.
---------------------------------

General
Complete name : C:\Users\joker\Documents\THE KINGDOM [DVDRIP][ENG]-KIDZCORNER&J.T.R\MAIN MOVIE.avi
Format : AVI
Format/Info : Audio Video Interleave
File size : 700 MiB
Duration : 1h 45mn
Overall bit rate : 929 Kbps
Writing application : FairUse Wizard - http://fairusewizard.com
Writing library : The best and REALLY easy backup tool

Video
Format : MPEG-4 Visual
Format profile : Streaming [email protected]
Format settings, BVOP : Yes
Format settings, QPel : No
Format settings, GMC : No warppoints
Format settings, Matrix : Default
Muxing mode : Packed bitstream
Codec ID : XVID
Codec ID/Hint : XviD
Duration : 1h 45mn
Bit rate : 792 Kbps
Width : 656 pixels
Height : 272 pixels
Display aspect ratio : 2.412
Frame rate : 25.000 fps
Resolution : 24 bits
Colorimetry : 4:2:0
Scan type : Progressive
Bits/(Pixel*Frame) : 0.177
Stream size : 596 MiB (85%)
Writing library : XviD 1.2.0.dev47 (UTC 2006-11-01)

Audio
Format : MPEG Audio
Format version : Version 1
Format profile : Layer 3
Codec ID : 55
Codec ID/Hint : MP3
Duration : 1h 45mn
Bit rate mode : Constant
Bit rate : 128 Kbps
Minimum bit rate : 128 Kbps
Channel(s) : 2 channels
Sampling rate : 48.0 KHz
Resolution : 16 bits
Stream size : 96.4 MiB (14%)
Alignment : Aligned on interleaves
Interleave, duration : 40 ms (1.00 video frame)
Interleave, preload duration : 504 ms
Writing library : LAME3.97
Encoding settings : CBR

related torrents

Torrent name

health leech seeds Size
 

comments (0)

Main Menu