Action

The Hurt Locker

  • Download 5x Faster
  • Download torrent
  • Direct Download
  • Rate this torrent +  |  -
The Hurt Locker

Anonymous and Free Direct Download 300GB+


Torrent info

Name:The Hurt Locker

Total Size: 1.37 GB

Magnet: Magnet Link

Seeds: 0

Leechers: 0

Stream: Watch Online @ Movie4u

Last Updated: 0000-00-00 00:00:00 (Update Now)

Torrent added: 2009-08-22 17:55:42



VPN For Torrents

Torrent Files List


The Hurt Locker.avi (Size: 1.37 GB) (Files: 2)

 The Hurt Locker.avi

1.37 GB

 SUBS

  The Hurt Locker.srt

87.35 KB
 

Announce URL: http://tracker.publicbt.com/announce

Torrent description


http://www.imdb.com/title/tt0887912/

FILE INFO
General
Format : AVI
Format/Info : Audio Video Interleave
File size : 1.37 GiB
Duration : 2h 5mn
Overall bit rate : 1 565 Kbps
Writing application : VirtualDubMod 1.5.10.2 (build 2540/release)
Writing library : VirtualDubMod build 2540/release

Video
ID : 0
Format : MPEG-4 Visual
Format profile : [email protected]
Format settings, BVOP : Yes
Format settings, QPel : No
Format settings, GMC : 3 warppoints
Format settings, Matrix : Default (H.263)
Muxing mode : Packed bitstream
Codec ID : XVID
Codec ID/Hint : XviD
Duration : 2h 5mn
Bit rate : 1 107 Kbps
Width : 720 pixels
Height : 384 pixels
Display aspect ratio : 1.875
Frame rate : 25.000 fps
Resolution : 24 bits
Colorimetry : 4:2:0
Scan type : Interlaced
Scan order : Bottom Field First
Bits/(Pixel*Frame) : 0.160
Stream size : 993 MiB (71%)
Writing library : XviD 1.1.2 (UTC 2006-11-01)

Audio
ID : 1
Format : AC-3
Format/Info : Audio Coding 3
Codec ID : 2000
Duration : 2h 5mn
Bit rate mode : Constant
Bit rate : 448 Kbps
Channel(s) : 6 channels
Channel positions : Front: L C R, Surround: L R, LFE
Sampling rate : 48.0 KHz
Stream size : 402 MiB (29%)
Alignment : Split accross interleaves
Interleave, duration : 40 ms (1.00 video frame)

related torrents

Torrent name

health leech seeds Size

The Hurt Locker avi

0 0 699.62 MB 0
 


comments (0)

Main Menu