Action

The Greatest Game Ever Played 2005 720p BluRay x264 SiNNERS

  • Download 5x Faster
  • Download torrent
  • Direct Download
  • Rate this torrent +  |  -

Torrent info

Name:The Greatest Game Ever Played 2005 720p BluRay x264 SiNNERS

Total Size: 6.61 GB

Magnet: Magnet Link

Seeds: 0

Leechers: 0

Stream: Watch Full Movie @ Movie4u

Last Updated: 2017-11-29 17:29:35 (Update Now)

Torrent added: 2009-08-22 17:49:40



VPN For Torrents

Torrent Files List


The.Greatest.Game.Ever.Played.2005.720p.BluRay.x264-SiNNERS.nfo (Size: 6.61 GB) (Files: 3)

 The.Greatest.Game.Ever.Played.2005.720p.BluRay.x264-SiNNERS.nfo

18.49 KB

 The.Greatest.Game.Ever.Played.2005.720p.BluRay.x264-SiNNERS.mkv

6.56 GB

 The.Greatest.Game.Ever.Played.2005.720p.BluRay.x264-SiNNERS-sample.mkv

57.31 MB
 

Announce URL:

Torrent description


The Greatest Game Ever Played
http://www.imdb.com/title/tt0388980/


Overview
User Rating: 7.3/10 6,358 votes
Director: Bill Paxton
Writers (WGA): Mark Frost (book), Mark Frost (screenplay)
Genre: Drama | History | Sport
Plot: A golf drama based on the true story of the 1913 US Open, where 20-year-old Francis Ouimet defeated his idol, 1900 US Open champion, Englishman, Harry Vardon.
Awards: 3 nominations
User Comments: a Truly Moving Picture


Cast
(Cast overview, first billed only)
James Paxton ... Young Harry Vardon
Tom Rack ... Black Top Hatted Man
Armand Laroche ... Black Top Hatted Man
Peter Hurley ... Black Top Hatted Man
Gregory Terlecki... Black Top Hatted Man
Jonathan Higgins... Embry Wallis
Matthew Knight ... Young Francis Ouimet
Luke Askew ... Alec Campbell
Amanda Tilson ... Young Sarah Wallis
Elias Koteas ... Arthur Ouimet
Jamie Merling ... Young Louise Ouimet
Eugenio Esposito... Young Raymond Ouimet
Marnie McPhail ... Mary Ouimet
Stephen Dillane ... Harry Vardon
Robin Wilcock ... Bernard Darwin


Additional Details
MPAA: Rated PG for some brief mild language.
Runtime: 120 min
Country: USA
Language: English
Color: Color
Aspect Ratio: 1.85
Sound Mix: DTS | Dolby Digital | SDDS
Certification: Australia:G | Singapore: PG | UK: PG | Argentina:Atp | USA: PG (certificate #41843) | Germany:o.Al. | Denmark:7 | Netherlands:AL | Canada:G (all jurisdictions)
Filming Locations: Kahnawake, Québec, Canada
Company: Fairway Films

Quote:

General

Complete name: The.Greatest.Game.Ever.Played.2005.720p.BluRay.x264-SiNNERS
Format: Matroska
File size: 6.56 GiB
Duration: 2h 0mn
Overall bit rate: 7 789 Kbps
Encoded date: UTC 2009-06-16 03:49:22
Writing application: mkvmerge v2.8.0 ('The Tree') built on May 9 2009 18:02:06
Writing library: libebml v0.7.7 + libmatroska v0.8.1


Videol

ID: 1
Format: AVC
Format/Info: Advanced Video Codec
Format profile: [email protected]
Format settings, CABAC: Yes
Format settings, ReFrames: 5 frames
Muxing mode: Container [email protected]
Codec ID: V_MPEG4/ISO/AVC
Duration: 2h 0mn
Bit rate: 6 123 Kbps
Nominal bit rate: 6 278 Kbps
Width: 1 280 pixels
Height: 688 pixels
Display aspect ratio: 1.860
Frame rate: 23.976 fps
Resolution: 24 bits
Colorimetry: 4:2:0
Scan type: Progressive
Bits/(Pixel*Frame): 0.290
Stream size: 5.15 GiB (79%)
Writing library: x264 core 67 r1165 6841c5e
Encoding settings: cabac=1 / ref=5 / deblock=1:0:0 / analyse=0x3:0x113 / me=umh / subme=7 / psy_rd=1.0:0.0 / mixed_ref=1 / me_range=16 / chroma_me=1 / trellis=1 / 8x8dct=1 / cqm=0 / deadzone=21,11 / chroma_qp_offset=-2 / threads=6 / nr=0 / decimate=1 / mbaff=0 / bframes=3 / b_pyramid=1 / b_adapt=1 / b_bias=0 / direct=1 / wpredb=1 / keyint=250 / keyint_min=25 / scenecut=40 / rc=2pass / bitrate=6278 / ratetol=1.0 / qcomp=0.60 / qpmin=10 / qpmax=51 / qpstep=4 / cplxblur=20.0 / qblur=0.5 / ip_ratio=1.40 / pb_ratio=1.30 / aq=1:1.00
Language: English


Audiol

ID: 2
Format: DTS
Format/Info: Digital Theater Systems
Codec ID: A_DTS
Duration: 2h 0mn
Bit rate mode: Constant
Bit rate: 1 510 Kbps
Channel(s): 6 channels
Channel positions: Front: L C R, Surround: L R, LFE
Sampling rate: 48.0 KHz
Resolution: 24 bits
Stream size: 1.27 GiB (19%)

Textl

ID: 3
Format: UTF-8
Codec ID: S_TEXT/UTF8
Codec ID/Info: UTF-8 Plain Text
Language: English

related torrents

Torrent name

health leech seeds Size
 


comments (0)

Main Menu

 

script data-cfasync="false" src="//d2ghscazvn398x.cloudfront.net/?cshgd=690275">