Action

The Drunken Master avi La Vela

  • Download 5x Faster
  • Download torrent
  • Direct Download
  • Rate this torrent +  |  -
The Drunken Master avi La Vela

Free and Direct Download with Usenet.nl 300GB+ free


Torrent info

Name:The Drunken Master avi La Vela

Total Size: 699.82 MB

Magnet: Magnet Link

Seeds: 0

Leechers: 0

Stream: Watch Online @ Movie4u

Last Updated: 2010-10-07 10:16:11 (Update Now)

Torrent added: 2009-08-22 17:36:51





Torrent Files List


Torrent downloaded from Demonoid.com-1.txt (Size: 699.82 MB) (Files: 5)

 Torrent downloaded from Demonoid.com-1.txt

0.05 KB

 Media.txt

2.17 KB

 Drunken Master.English.rar

19.71 KB

 Drunken Master.Dutch.rar

22.25 KB

 Drunken Master.avi

699.78 MB
 

Announce URL: http://inferno.demonoid.com:3415/announce

Torrent description

General

Complete name : The Drunken Master.avi.La.Vela
Imdb : http://www.imdb.com/title/tt0080179/
Language : Chinese
Subtitles : Dutch/English
Format : AVI
Format/Info : Audio Video Interleave
File size : 700 MiB
Duration : 1h 46mn
Overall bit rate : 922 Kbps
Writing application : VirtualDubMod 1.5.10.1 (build 2439/release)
Writing library : VirtualDubMod build 2439/release

Video
Format : MPEG-4 Visual
Format profile : [email protected]
Format settings, BVOP : No
Format settings, QPel : No
Format settings, GMC : No warppoints
Format settings, Matrix : Default
Codec ID : XVID
Codec ID/Hint : XviD
Duration : 1h 46mn
Bit rate : 807 Kbps
Width : 608 pixels
Height : 256 pixels
Display aspect ratio : 2.35
Frame rate : 23.976 fps
Resolution : 24 bits
Colorimetry : 4:2:0
Scan type : Progressive
Bits/(Pixel*Frame) : 0.216
Stream size : 612 MiB (87%)
Writing library : XviD 1.0.0 (UTC 2004-05-09)

Audio
Format : MPEG Audio
Format version : Version 1
Format profile : Layer 3
Codec ID : 55
Codec ID/Hint : MP3
Duration : 1h 46mn
Bit rate mode : Variable
Bit rate : 103 Kbps
Channel(s) : 2 channels
Sampling rate : 48.0 KHz
Resolution : 16 bits
Stream size : 78.2 MiB (11%)
Alignment : Aligned on interleaves
Interleave, duration : 24 ms (0.58 video frame)
Interleave, preload duration : 417 ms
Writing library : LAME3.93
Encoding settings : VBR (mtrh)

related torrents

Torrent name

health leech seeds Size
 

comments (0)

Main Menu