Action

THE DEER HUNTER [1978] [ENG] [AC3 2] [DVDRIP M333] FLAWL3SS

  • Download 5x Faster
  • Download torrent
  • Direct Download
  • Rate this torrent +  |  -
THE DEER HUNTER [1978] [ENG] [AC3 2] [DVDRIP M333] FLAWL3SS

Anonymous and Direct Download 300GB+ free


Torrent info

Name:THE DEER HUNTER [1978] [ENG] [AC3 2] [DVDRIP M333] FLAWL3SS

Total Size: 1.03 GB

Magnet: Magnet Link

Seeds: 0

Leechers: 0

Stream: Watch Online @ Movie4u

Last Updated: 2015-09-12 03:12:26 (Update Now)

Torrent added: 2009-08-22 17:34:39




Torrent Files List


Torrent downloaded from Demonoid.com.txt (Size: 1.03 GB) (Files: 6)

 Torrent downloaded from Demonoid.com.txt

0.05 KB

 The Deer Hunter.jpg

38.33 KB

 The Deer Hunter [1978] [eng] [ac3.2] [dvdrip-M333]-flawl3ss.avi

1.03 GB

 nfo.txt

2.73 KB

 Find us.jpg

218.31 KB

 Check us Out.txt

0.13 KB
 

tracker

leech seeds
 

Torrent description

General
Complete name : The Deer Hunter [1978] [eng] [ac3.2] [dvdrip-M333]-flawl3ss.avi
Format : AVI
Format/Info : Audio Video Interleave
File size : 1.03 GiB
Duration : 2h 59mn
Overal bit rate : 819 Kbps
Movie name : The Deer Hunter [1978] [eng] [ac3.2] [dvdrip-M333]-flawl3ss
Director : M333
Writing application : M333-FLAWLESS_RG
Product : T D H

Video
Format : MPEG-4 Visual
Format profile : [email protected]
Format settings, BVOP : No
Format settings, QPel : No
Format settings, GMC : No warppoints
Format settings, Matrix : Default
Codec ID : XVID
Codec ID/Hint : XviD
Duration : 2h 59mn
Bit rate : 616 Kbps
Width : 720 pixels
Height : 306 pixels
Display aspect ratio : 2.35
Frame rate : 25.000 fps
Resolution : 8 bits
Colorimetry : 4:2:0
Scan type : Progressive
Bits/(Pixel*Frame) : 0.112
Stream size : 793 MiB
Writing library : XviD 1.1.2 (UTC 2006-11-01)

Audio
Format : AC-3
Format/Info : Audio Coding 3
Codec ID : 2000
Duration : 2h 59mn
Bit rate mode : Constant
Bit rate : 192 Kbps
Channel(s) : 2 channels
Channel positions : L R
Sampling rate : 48.0 KHz
Stream size : 247 MiB
Language : undefined

HASH C2AE17F581526CA76B4C0EA4F7F0B9548B65A6E2

Trackers

http://tpb.tracker.thepiratebay.org:80/announce

http://denis.stalker.h3q.com:6969/announce

http://open.tracker.thepiratebay.org/announce

http://www.torrentsnipe.info:2701/announce

http://open.tracker.thepiratebay.org/announce

http://vip.tracker.thepiratebay.org:80/announce


Screens

THE DEER HUNTER [1978] [ENG] [AC3 2] [DVDRIP M333] FLAWL3SS preview 0

THE DEER HUNTER [1978] [ENG] [AC3 2] [DVDRIP M333] FLAWL3SS preview 1

THE DEER HUNTER [1978] [ENG] [AC3 2] [DVDRIP M333] FLAWL3SS preview 2

THE DEER HUNTER [1978] [ENG] [AC3 2] [DVDRIP M333] FLAWL3SS preview 3

IMDB

http://www.imdb.com/title/tt0077416/

Trailer

http://www.imdb.com/title/tt0077416/trailers-screenplay-vi3045785881

related torrents

Torrent name

health leech seeds Size
 


comments (0)

Main Menu