Action

The Dark Knight [2008] DVDRip N!CK [Re Rls]

  • Download 5x Faster
  • Download torrent
  • Direct Download
  • Rate this torrent +  |  -
The Dark Knight [2008] DVDRip N!CK [Re Rls]

Free and Direct Download with Usenet 300GB+ free


Torrent info

Name:The Dark Knight [2008] DVDRip N!CK [Re Rls]

Total Size: 0.26 KB

Magnet: Magnet Link

Seeds: 25

Leechers: 2

Stream: Watch Online @ Movie4u

Last Updated: 2010-11-30 17:44:59 (Update Now)

Torrent added: 2009-08-22 17:32:02




Torrent Files List


Read Info.txt (Size: 0.26 KB) (Files: 1)

 Read Info.txt

0.26 KB
 

Announce URL: http://tracker.openbittorrent.com:80/announce

Torrent description

General
Complete name : C:\The Dark Knight [2008] DVDRip - N!CK\The Dark Knight [2008] DVDRip - N!CK.avi
Format : AVI
Format/Info : Audio Video Interleave
File size : 1.37 GiB
Duration : 2h 32mn
Overal bit rate : 1289 Kbps

Video
Format : MPEG-4 Visual
Format profile : Streaming [email protected]
Format settings, BVOP : Yes
Format settings, QPel : No
Format settings, GMC : No warppoints
Format settings, Matrix : Default
Codec ID : XVID
Codec ID/Hint : XviD
Duration : 2h 32mn
Bit rate : 1164 Kbps
Width : 720 pixels
Height : 304 pixels
Display aspect ratio : 2.35
Frame rate : 23.976 fps
Resolution : 8 bits
Colorimetry : 4:2:0
Scan type : Progressive
Bits/(Pixel*Frame) : 0.222
Stream size : 1.24 GiB
Writing library : XviD 50

Audio
Format : MPEG Audio
Format version : Version 1
Format profile : Layer 3
Codec ID : 55
Codec ID/Hint : MP3
Bit rate mode : Constant
Bit rate : 112 Kbps
Channel(s) : 2 channels
Sampling rate : 48.0 KHz
Resolution : 16 bits
Stream size : 122 MiB

related torrents

Torrent name

health leech seeds Size

The Dark Knight (2008)

5346 7371 581.37 MB 0

The Dark Knight (2008)

5360 6777 686.92 MB 0
 

comments (0)

Main Menu