Action

THE CREW 2009[DVDRIP][ENG] KIDZCORNER&J T R

  • Download 5x Faster
  • Download torrent
  • Direct Download
  • Rate this torrent +  |  -
THE CREW 2009[DVDRIP][ENG] KIDZCORNER&J T R

Anonymous and Free Direct Download 300GB+


Torrent info

Name:THE CREW 2009[DVDRIP][ENG] KIDZCORNER&J T R

Total Size: 699.76 MB

Magnet: Magnet Link

Seeds: 2

Leechers: 1

Stream: Watch Online @ Movie4u

Last Updated: 2011-07-18 03:35:57 (Update Now)

Torrent added: 2009-08-22 17:29:49



VPN For Torrents

Torrent Files List


Tracked by moviesb4time.biz.txt (Size: 699.76 MB) (Files: 4)

 Tracked by moviesb4time.biz.txt

1.35 KB

 Torrent downloaded from Demonoid.com-1.txt

0.05 KB

 TCREW.avi

699.72 MB

 8116309x.jpg

37.41 KB
 

Announce URL: http://tracker.publicbt.com/announce

Torrent description

After a decade of meticulously planned heists, respected crime boss Ged Brennan has learnt never to take unnecessary risks.

But when a recent heist goes wrong and a notorious drugs baron is brutally butchered, prompting rival crews to the brink of gang war, Ged's world is thrown into chaos.

Facing betrayal all around him, and with his biggest heist ever approaching, Ged has to rely on his killer instincts as he fights for survival.


WARNING EXTREME VIOLENCE

General
Complete name : C:\Users\joker\Documents\THE CREW 2009[DVDRIP][ENG]-KIDZCORNER&J.T.R\TCREW.avi
Format : AVI
Format/Info : Audio Video Interleave
File size : 700 MiB
Duration : 1h 57mn
Overall bit rate : 830 Kbps
Writing application : FairUse Wizard - http://fairusewizard.com
Writing library : The best and REALLY easy backup tool

Video
Format : MPEG-4 Visual
Format profile : Streaming [email protected]
Format settings, BVOP : Yes
Format settings, QPel : No
Format settings, GMC : No warppoints
Format settings, Matrix : Default
Muxing mode : Packed bitstream
Codec ID : XVID
Codec ID/Hint : XviD
Duration : 1h 57mn
Bit rate : 693 Kbps
Width : 512 pixels
Height : 272 pixels
Display aspect ratio : 1.882
Frame rate : 25.000 fps
Resolution : 24 bits
Colorimetry : 4:2:0
Scan type : Progressive
Bits/(Pixel*Frame) : 0.199
Stream size : 584 MiB (83%)
Writing library : XviD 1.2.0.dev47 (UTC 2006-11-01)

Audio
Format : MPEG Audio
Format version : Version 1
Format profile : Layer 3
Codec ID : 55
Codec ID/Hint : MP3
Duration : 1h 57mn
Bit rate mode : Constant
Bit rate : 128 Kbps
Minimum bit rate : 128 Kbps
Channel(s) : 2 channels
Sampling rate : 48.0 KHz
Resolution : 16 bits
Stream size : 108 MiB (15%)
Alignment : Aligned on interleaves
Interleave, duration : 40 ms (1.00 video frame)
Interleave, preload duration : 504 ms
Writing library : LAME3.97
Encoding settings : CBR

related torrents

Torrent name

health leech seeds Size
 


comments (0)

Main Menu