Action

The Art Of War 2008 MULTiSUBS DVDRip XviD Cocc

  • Download 5x Faster
  • Download torrent
  • Direct Download
  • Rate this torrent +  |  -
The Art Of War 2008 MULTiSUBS DVDRip XviD Cocc

Free and Direct Download with Usenet.nl 300GB+ free


Torrent info

Name:The Art Of War 2008 MULTiSUBS DVDRip XviD Cocc

Total Size: 717.29 MB

Magnet: Magnet Link

Seeds: 0

Leechers: 1

Stream: Watch Online @ Movie4u

Last Updated: 2010-10-03 17:28:57 (Update Now)

Torrent added: 2009-08-22 17:27:57





Torrent Files List


Sub.rar (Size: 717.29 MB) (Files: 2)

 Sub.rar

17.31 MB

 The.Art.Of.War.2008.MULTiSUBS.DVDRip.XviD-Cocc.avi

699.98 MB
 

Announce URL: http://vip.tracker.thepiratebay.org:80/announce

Torrent description

The Art of War II: Betrayal (2008)

When Agent Neil Shaw comes out of hiding to vindicate his former
mentor's murder, he winds up on the trail of betrayal and lethal
corruption. Under the charge of his friend and a senatorial
candidate, his mission is to set things straight. But when more
people turn up dead, Shaw realizes that he's been set up as bait.



Subtitles; En,Cs,Hu,Pl,Ar,Bg,Hr,Da,Et,Fi,El,Iw,Hi,
Is,No,Ro,Sk,Sl,Sv,Tr,



IMDb http://www.imdb.com/title/tt1233571/





General
Complete name : The.Art.Of.War.2008.MULTiSUBS.DVDRip.XviD-Cocc.avi
Format : AVI
Format/Info : Audio Video Interleave
File size : 700 MiB
Duration : 1h 38mn
Overall bit rate : 994 Kbps
Writing application : Nandub v1.0rc2
Writing library : Nandub build 1852/release

Video
Format : MPEG-4 Visual
Format profile : Streaming [email protected]
Format settings, BVOP : Yes
Format settings, QPel : No
Format settings, GMC : No warppoints
Format settings, Matrix : Default
Muxing mode : Packed bitstream
Codec ID : XVID
Codec ID/Hint : XviD
Duration : 1h 38mn
Bit rate : 838 Kbps
Width : 640 pixels
Height : 272 pixels
Display aspect ratio : 2.35
Frame rate : 25.000 fps
Resolution : 24 bits
Colorimetry : 4:2:0
Scan type : Progressive
Bits/(Pixel*Frame) : 0.193
Stream size : 590 MiB (84%)
Writing library : XviD 1.1.2 (UTC 2006-11-01)

Audio
Format : MPEG Audio
Format version : Version 1
Format profile : Layer 3
Codec ID : 55
Codec ID/Hint : MP3
Duration : 1h 38mn
Bit rate mode : Variable
Bit rate : 143 Kbps
Minimum bit rate : 128 Kbps
Channel(s) : 2 channels
Sampling rate : 48.0 KHz
Resolution : 16 bits
Stream size : 101 MiB (14%)
Alignment : Aligned on interleaves
Interleave, duration : 24 ms (0.60 video frame)
Interleave, preload duration : 124 ms
Writing library : LAME3.92
Encoding settings : VBR (rh)

Created with: DP MediaInfo version 1.05 (c) by Dirk Paehl
MediaInfoLib - v0.7.7.6

related torrents

Torrent name

health leech seeds Size
 

comments (0)

Main Menu