Action

Slumdog Millionaire DVDRip XviD nsiervi avi

  • Download 5x Faster
  • Download torrent
  • Direct Download
  • Rate this torrent +  |  -
Slumdog Millionaire DVDRip XviD nsiervi avi

Anonymous and free Direct Download 300GB+


Torrent info

Name:Slumdog Millionaire DVDRip XviD nsiervi avi

Total Size: 698.46 MB

Magnet: Magnet Link

Seeds: 0

Leechers: 0

Stream: Watch Online @ Movie4u

Last Updated: 2010-12-21 18:34:51 (Update Now)

Torrent added: 2009-08-22 17:06:20



VPN For Torrents

Torrent Files List


Slumdog.Millionaire.DVDRip.XviD-nsiervi.avi (Size: 698.46 MB) (Files: 1)

 Slumdog.Millionaire.DVDRip.XviD-nsiervi.avi

698.46 MB
 

Announce URL:

Torrent description

Quem Quer Ser Um Milionário?
( Slumdog Millionaire )

Sinopse:
O filme Quem Quer Ser Um Milionário? ganhou o Oscar de melhor filme na 81ª edição da premiação. A produção, aclamada pela crítica, levou oito estatuetas, desbancando O Curioso Caso de Benjamin Button, que tinha 13 indicações contra dez de Milionário.

O filme segue a história de Jamal, operador de telemarketing que consegue responder corretamente todas as perguntas no programa Quem Quer Ser Um Milionário? (o equivalente ao Jogo do Milhão) e é acusado de fraude.

Investigado pela polícia, o garoto começa a lembrar as histórias de sua infância, acreditando que vencer o programa fazia parte de seu destino.

Elenco
Dev Patel (Jamal K. Malik)
Ayush Mahesh Khedekar (Jamal K. Malik - criança)
Tanay Chheda (Jamal K. Malik - jovem)
Freida Pinto (Latika)
Rubiana Ali (Latika - criança)
Tanvi Ganesh Lonkar (Latika - jovem)
Madhur Mittal (Salim)
Azharuddin Mohammed Ismail (Salim - criança)
Ashutosh Lobo Gajiwala (Salim - jovem)
Chirag Parmar (Arvind - criança)
Janet de Vigne (Ada)
William Relton (Peter)
David Gilliam (Clark)
Mia Drake (Adele)
Arfi Lamba (Bardi)
Taira Colah (Nasreen)

Dados do Filme:
Título Original: Slumdog Millionaire
Gênero: Drama
Tempo de Duração: 120 minutos
Ano de Lançamento (EUA / Inglaterra): 2008
Site Oficial: www.quemquerserummilionario.com.br
Estúdio: Celador Films / Film4
Distribuição: Fox Searchlight Pictures / Europa Filmes
Direção: Danny Boyle
Roteiro: Simon Beaufoy, baseado em livro de Vikas Swarup
Produção: Christian Colson
Música: A.R. Rahman
Fotografia: Anthony Dod Mantle
Desenho de Produção: Mark Digby
Figurino: Suttirat Anne Larlarb
Edição: Chris Dickens

Link IMDB: http://www.imdb.com/title/tt1010048/
User Rating: 8.6/10 >> 95,928 votes

Infos:
Format : AVI
Format/Info : Audio Video Interleave
File size : 698 MiB
Duration : 2h 0mn
Overall bit rate : 808 Kbps
Writing application : VirtualDubMod 1.5.10.2 (build 2540/release)
Writing library : VirtualDubMod build 2540/release

Video
Format : MPEG-4 Visual
Format profile : Streaming [email protected]
Format settings, BVOP : Yes
Format settings, QPel : No
Format settings, GMC : No warppoints
Format settings, Matrix : Default
Codec ID : XVID
Codec ID/Hint : XviD
Duration : 2h 0mn
Bit rate : 671 Kbps
Width : 608 pixels
Height : 256 pixels
Display aspect ratio : 2.35
Frame rate : 23.976 fps
Resolution : 24 bits
Colorimetry : 4:2:0
Scan type : Progressive
Bits/(Pixel*Frame) : 0.180
Stream size : 580 MiB (83%)
Writing library : XviD 1.1.2 (UTC 2006-11-01)

Audio
Format : MPEG Audio
Format version : Version 1
Format profile : Layer 3
Codec ID : 55
Codec ID/Hint : MP3
Duration : 2h 0mn
Bit rate mode : Constant
Bit rate : 128 Kbps
Channel(s) : 2 channels
Sampling rate : 48.0 KHz
Resolution : 16 bits
Stream size : 110 MiB (16%)
Alignment : Aligned on interleaves
Interleave, duration : 42 ms (1.00 video frame)
Interleave, preload duration : 504 ms
Writing library : LAME3.97 (beta)

related torrents

Torrent name

health leech seeds Size
 


comments (0)

Main Menu