Action

Singh Is King (2008) PDVD Rip 400MB **Latest Quality** BY

  • Download 5x Faster
  • Download torrent
  • Direct Download
  • Rate this torrent +  |  -

Torrent info

Name:Singh Is King (2008) PDVD Rip 400MB **Latest Quality** BY

Total Size: 439.19 MB

Magnet: Magnet Link

Seeds: 0

Leechers: 1

Stream: Watch Online @ Movie4u

Last Updated: 0000-00-00 00:00:00 (Update Now)

Torrent added: 2009-08-22 16:56:25



VPN For Torrents

Torrent Files List


Singh is Kinng.mp4 (Size: 439.19 MB) (Files: 1)

 Singh is Kinng.mp4

439.19 MB
 

Announce URL: http://open.tracker.thepiratebay.org/announce

Torrent description

Singh Is King (2008) PDVD Rip **Latest Quality** BY www.Yolike.com

Click Here For ScreenShots

-Rip Info-

General
Complete name : Singh Is Kinng 2008 ~ PDVD RIP ~ Jay78 ~ Team DUS.avi
Format : AVI
Format/Info : Audio Video Interleave
Format profile : OpenDML
File size : 436 MiB
Duration : 2h 17mn
Overal bit rate : 714 Kbps
Writing application : AVI-Mux GUI 1.17.7, Aug 8 2006 20:59:17

Video
Format : MPEG-4 Visual
Format profile : Streaming [email protected]
Format settings, BVOP : Yes
Format settings, QPel : No
Format settings, GMC : No warppoints
Format settings, Matrix : Default
Codec ID : XVID
Codec ID/Hint : XviD
Duration : 2h 17mn
Bit rate : 582 Kbps
Width : 576 pixels
Height : 256 pixels
Display aspect ratio : 2.25
Frame rate : 29.970 fps
Resolution : 8 bits
Colorimetry : 4:2:0
Scan type : Progressive
Bits/(Pixel*Frame) : 0.132
Stream size : 572 MiB (81%)
Writing library : XviD 1.2.0.dev47 (UTC 2006-11-01)

Audio
Format : MPEG Audio
Format version : Version 1
Format profile : Layer 3
Codec ID : 55
Codec ID/Hint : MP3
Bit rate mode : Constant
Bit rate : 128 Kbps
Minimum bit rate : 128 Kbps
Channel(s) : 2 channels
Sampling rate : 48.0 KHz
Resolution : 16 bits
Stream size : 126 MiB (18%)
Title : VTS_01_1 T01 2_0ch 192Kbps DELAY 0ms
Writing library : LAME3.98a
Encoding settings : CBR

related torrents

Torrent name

health leech seeds Size

Singh is King 2008 Cam Rip

0 0 469.15 MB 0
 


comments (0)

Main Menu